[ create a new paste ] login | about

Link: http://codepad.org/cgTOiGED    [ raw code | fork ]

Plain Text, pasted on Nov 2:
Exact Audio Copy V1.1 from 23. June 2015

EAC extraction logfile from 22. October 2016, 17:49

Lou Reed / Mistrial

Used drive  : PLEXTOR BD-R  PX-B950SA   Adapter: 1  ID: 1

Read mode               : Secure
Utilize accurate stream : Yes
Defeat audio cache      : Yes
Make use of C2 pointers : No

Read offset correction                      : 6
Overread into Lead-In and Lead-Out          : No
Fill up missing offset samples with silence : Yes
Delete leading and trailing silent blocks   : No
Null samples used in CRC calculations       : Yes
Used interface                              : Native Win32 interface for Win NT & 2000

Used output format : Internal WAV Routines
Sample format      : 44.100 Hz; 16 Bit; Stereo


TOC of the extracted CD

     Track |   Start  |  Length  | Start sector | End sector 
    ---------------------------------------------------------
        1  |  0:00.00 |  3:20.71 |         0    |    15070   
        2  |  3:20.71 |  3:11.20 |     15071    |    29415   
        3  |  6:32.16 |  3:03.02 |     29416    |    43142   
        4  |  9:35.18 |  3:59.39 |     43143    |    61106   
        5  | 13:34.57 |  5:36.04 |     61107    |    86310   
        6  | 19:10.61 |  3:41.51 |     86311    |   102936   
        7  | 22:52.37 |  3:41.00 |    102937    |   119511   
        8  | 26:33.37 |  4:14.53 |    119512    |   138614   
        9  | 30:48.15 |  3:14.21 |    138615    |   153185   
       10  | 34:02.36 |  5:12.66 |    153186    |   176651   


Range status and errors

Selected range

     Filename C:\Lou Reed\2016 RCA & Arista Album Collection (17CD Box Set Sony Music)\1986 Mistrial\Lou Reed - Mistrial.wav

     Peak level 99.2 %
     Extraction speed 6.7 X
     Range quality 100.0 %
     Test CRC 7B806993
     Copy CRC 7B806993
     Copy OK

No errors occurred

 
AccurateRip summary
 
Track  1  not present in database
Track  2  not present in database
Track  3  not present in database
Track  4  not present in database
Track  5  not present in database
Track  6  not present in database
Track  7  not present in database
Track  8  not present in database
Track  9  not present in database
Track 10  not present in database
 
None of the tracks are present in the AccurateRip database

End of status report

---- CUETools DB Plugin V2.1.6

[CTDB TOCID: Gw1LM8sXzEV7u_yOy9U387UOnOw-] found
Submit result: Gw1LM8sXzEV7u_yOy9U387UOnOw- has been confirmed
Track | CTDB Status
  1   | (4/4) Accurately ripped
  2   | (4/4) Accurately ripped
  3   | (4/4) Accurately ripped
  4   | (4/4) Accurately ripped
  5   | (4/4) Accurately ripped
  6   | (4/4) Accurately ripped
  7   | (4/4) Accurately ripped
  8   | (4/4) Accurately ripped
  9   | (4/4) Accurately ripped
 10   | (4/4) Accurately ripped


==== Log checksum 13B89328E4E3E12225899EAD39E8E3B2AF8C10E9258B96E692FE09791BBB5240 ====



Create a new paste based on this one


Comments: