[ create a new paste ] login | about

Link: http://codepad.org/ciY6BmDi    [ raw code | fork ]

Plain Text, pasted on Jan 12:
Exact Audio Copy V1.0 beta 4 from 7. December 2014

EAC extraction logfile from 19. March 2015, 1:32

Roger Waters / The Collection. CD6. In The Flesh CD1 (2011, 88697763332-5, 82876842682)

Used drive  : ATAPI   iHAS124   B   Adapter: 1  ID: 0

Read mode               : Secure
Utilize accurate stream : Yes
Defeat audio cache      : Yes
Make use of C2 pointers : No

Read offset correction                      : 6
Overread into Lead-In and Lead-Out          : No
Fill up missing offset samples with silence : Yes
Delete leading and trailing silent blocks   : No
Null samples used in CRC calculations       : Yes
Used interface                              : Installed external ASPI interface

Used output format              : User Defined Encoder
Selected bitrate                : 128 kBit/s
Quality                         : High
Add ID3 tag                     : Yes
Command line compressor         : C:\Program Files (x86)\Exact Audio Copy\Flac\flac.exe
Additional command line options : -V -8 -T "Date=%year%" -T "Genre=%genre%" %source%

TOC of the extracted CD

     Track |   Start  |  Length  | Start sector | End sector
    ---------------------------------------------------------
        1  |  0:00.00 |  4:41.42 |         0    |    21116
        2  |  4:41.42 |  1:36.50 |     21117    |    28366
        3  |  6:18.17 |  5:52.45 |     28367    |    54811
        4  | 12:10.62 |  5:41.50 |     54812    |    80436
        5  | 17:52.37 |  0:52.15 |     80437    |    84351
        6  | 18:44.52 |  2:16.28 |     84352    |    94579
        7  | 21:01.05 |  1:18.45 |     94580    |   100474
        8  | 22:19.50 | 16:24.70 |    100475    |   174344
        9  | 38:44.45 |  6:54.30 |    174345    |   205424
       10  | 45:39.00 |  4:57.35 |    205425    |   227734
       11  | 50:36.35 | 14:43.15 |    227735    |   293974
       12  | 65:19.50 |  7:10.50 |    293975    |   326274

Range status and errors

Selected range

     Filename G:\CD\Roger Waters - CD6. In The Flesh CD1.wav

     Peak level 100.0 %
     Extraction speed 6.1 X
     Range quality 99.9 %
     Test CRC F7A018DF
     Copy CRC F7A018DF
     Copy OK

No errors occurred

AccurateRip summary

Track  1  accurately ripped (confidence 103)  [0DC0E9F2]  (AR v2)
Track  2  accurately ripped (confidence 104)  [14EC8813]  (AR v2)
Track  3  accurately ripped (confidence 104)  [9AD7D016]  (AR v2)
Track  4  accurately ripped (confidence 104)  [77528480]  (AR v2)
Track  5  accurately ripped (confidence 104)  [091FD828]  (AR v2)
Track  6  accurately ripped (confidence 103)  [E122D9E8]  (AR v2)
Track  7  accurately ripped (confidence 103)  [F941789D]  (AR v2)
Track  8  accurately ripped (confidence 101)  [6154A034]  (AR v2)
Track  9  accurately ripped (confidence 102)  [D255FEF6]  (AR v2)
Track 10  accurately ripped (confidence 102)  [68307FF9]  (AR v2)
Track 11  accurately ripped (confidence 98)  [C66F3642]  (AR v2)
Track 12  accurately ripped (confidence 99)  [A166652F]  (AR v2)

All tracks accurately ripped

End of status report

---- CUETools DB Plugin V2.1.4

[CTDB TOCID: ZNADprPcRaoN03WL3PzqKXnxCSs-] found
Submit result: ZNADprPcRaoN03WL3PzqKXnxCSs- has been confirmed
Track | CTDB Status
  1   | (206/208) Accurately ripped
  2   | (206/208) Accurately ripped
  3   | (206/208) Accurately ripped
  4   | (206/208) Accurately ripped
  5   | (206/208) Accurately ripped
  6   | (206/208) Accurately ripped
  7   | (206/208) Accurately ripped
  8   | (205/208) Accurately ripped
  9   | (205/208) Accurately ripped
 10   | (206/208) Accurately ripped
 11   | (205/208) Accurately ripped
 12   | (206/208) Accurately ripped

==== Log checksum C148D270E837C9C8604D4FA8DED4DB8014DA1B49D7BC2409C093DD535A6A6590 ====


Create a new paste based on this one


Comments: