[ create a new paste ] login | about

Link: http://codepad.org/ckYnPA8Z    [ raw code | fork ]

Plain Text, pasted on Jan 8:
foobar2000 1.5 / Dynamic Range Meter 1.1.1
log date: 2020-01-08 20:11:45

--------------------------------------------------------------------------------
Analyzed: Donald Runnicles / Atlanta Symphony Orchestra and Chorus / Telarc SACD Sampler I (1)
          Erich Kunzel / Cincinnati Pops "Big Band" Orchestra / Telarc SACD Sampler I (2)
          Erich Kunzel / Cincinnati Pops Orchestra / James Galway / Telarc SACD Sampler I (3)
          Erich Kunzel / Cincinnati Pops Orchestra / King's Singers / Telarc SACD Sampler I (4)
          Junior Wells / Telarc SACD Sampler I (5)
          Kevin Mahogany / Telarc SACD Sampler I (6)
          Los Angeles Guitar Quartet / Telarc SACD Sampler I (7)
          Michael Murray / Telarc SACD Sampler I (8)
          Michel Camilo / Telarc SACD Sampler I (9)
          Monty Alexander / Telarc SACD Sampler I (10)
          Oscar Peterson / Michel Legrand / Telarc SACD Sampler I (11)
          Philip Bailey / Telarc SACD Sampler I (12)
          Robert Spano / Atlanta Symphony Orchestra and Chorus / Telarc SACD Sampler I (13)
          Spyro Gyra / Telarc SACD Sampler I (14)
          Weather Report / Telarc SACD Sampler I (15)
--------------------------------------------------------------------------------

DR         Peak         RMS     Duration Track
--------------------------------------------------------------------------------
DR13      -1.34 dB   -20.87 dB      2:36 15-Orff: O Fortuna from 'Carmina Burana'
DR14      -5.15 dB   -24.52 dB      3:21 10-September in the Rain
DR13      -1.71 dB   -18.53 dB      4:51 09-Simple Gifts
DR11      -8.27 dB   -23.88 dB      3:18 11-Across the Universe
DR12      -3.44 dB   -18.48 dB      5:04 05-Give Me One Reason
DR12      -0.01 dB   -14.03 dB      6:28 08-Pride and Joy
DR17      -4.84 dB   -28.74 dB      6:59 12-Cuban Landscape with Rain
DR10      -5.89 dB   -20.93 dB      1:57 13-Dupré: Magnificat VI: Gloria (Finale) Op. 18, No. 15
DR15      -2.23 dB   -20.35 dB      4:08 06-Anthony's Blues
DR9       -1.97 dB   -12.91 dB      5:08 01-Moanin'
DR12      -8.05 dB   -24.86 dB      5:12 07-Harcourt Nights from 'Trail of Dreams - A Canadian Suite'
DR7       -3.40 dB   -12.83 dB      4:59 03-Nature Boy
DR12      -3.21 dB   -22.01 dB      3:18 14-Vaughan Williams: A Song for All Seas, All Ships from 'A Sea Symphony' (excerpt)
DR8       -3.35 dB   -13.30 dB      4:24 04-Feelin' Fine
DR9       -5.99 dB   -17.74 dB      5:39 02-Badia
--------------------------------------------------------------------------------

Number of tracks:  15
Official DR value: DR12

Samplerate:        88200 Hz
Channels:          2
Bits per sample:   24
Bitrate:           2504 kbps
Codec:             FLAC
================================================================================




Create a new paste based on this one


Comments: