[ create a new paste ] login | about

Link: http://codepad.org/cmJmOyci    [ raw code | fork ]

Plain Text, pasted on Feb 12:
foobar2000 1.3.17 / Dynamic Range Meter 1.1.1
log date: 2018-02-11 18:06:45

--------------------------------------------------------------------------------
Analyzed: Jethro Tull / Aqualung (Stereo 2016 Remixed)
--------------------------------------------------------------------------------

DR         Peak         RMS     Duration Track
--------------------------------------------------------------------------------
DR14      -0.10 dB   -16.66 dB      6:38 01-Aqualung
DR13      -0.10 dB   -15.18 dB      4:12 02-Cross-Eyed Mary
DR15      -4.64 dB   -24.03 dB      1:23 03-Cheap Day Return
DR16      -0.10 dB   -19.84 dB      3:53 04-Mother Goose
DR15      -1.50 dB   -21.93 dB      1:56 05-Wond'ring Aloud
DR13      -1.00 dB   -16.69 dB      3:16 06-Up To Me
DR14      -0.10 dB   -18.01 dB      7:13 07-My God
DR14      -0.10 dB   -15.87 dB      3:19 08-Hymn 43
DR14      -3.10 dB   -23.66 dB      1:13 09-Slipstream
DR14      -0.10 dB   -17.10 dB      4:42 10-Locomotive Breath
DR13      -0.10 dB   -17.42 dB      6:03 11-Wind-Up
--------------------------------------------------------------------------------

Number of tracks:  11
Official DR value: DR14

Samplerate:        96000 Hz
Channels:          2
Bits per sample:   24
Bitrate:           2572 kbps
Codec:             FLAC
================================================================================




Create a new paste based on this one


Comments: