[ create a new paste ] login | about

Link: http://codepad.org/cnEYViUy    [ raw code | fork ]

Plain Text, pasted on Aug 10:
foobar2000 1.4.4 / Dynamic Range Meter 1.1.1
log date: 2019-08-10 11:15:08

--------------------------------------------------------------------------------
Analyzed: Arnie Somogyi's Ambulance / Accident and Insurgency
--------------------------------------------------------------------------------

DR         Peak         RMS     Duration Track
--------------------------------------------------------------------------------
DR9       -0.24 dB   -12.57 dB      7:02 01-Walking Wounded
DR13      -2.32 dB   -20.06 dB      2:15 02-Mick the Fish
DR12      -0.07 dB   -14.88 dB      8:48 03-Captain Courageous
DR10      -1.71 dB   -15.02 dB      7:06 04-Tumbledown
DR11      -0.33 dB   -15.81 dB      1:09 05-Lobster Pot 999
DR9       -0.28 dB   -11.76 dB      3:54 06-Don't Improvise
DR10      -0.35 dB   -13.32 dB      7:31 07-Solace
DR13      -7.57 dB   -24.95 dB      0:45 08-Serenity
DR10      -2.34 dB   -15.67 dB      6:26 09-Adrift
DR11      -0.29 dB   -12.95 dB      1:04 10-Sirenity (aka deaf on arrival)
DR11      -0.22 dB   -13.46 dB      9:24 11-Broadside
--------------------------------------------------------------------------------

Number of tracks:  11
Official DR value: DR11

Samplerate:        88200 Hz
Channels:          2
Bits per sample:   24
Bitrate:           2638 kbps
Codec:             FLAC
================================================================================




Create a new paste based on this one


Comments: