[ create a new paste ] login | about

Link: http://codepad.org/cq2xmgjm    [ raw code | fork ]

Plain Text, pasted on Aug 26:
EAC extraction logfile from 2. June 2007, 18:39 for CD
The Nat ''King'' Cole Trio / The Complete Capitol Recordings Of The Nat ''King'' Cole Trio - Disc 09

Used drive  : HL-DT-STDVD-ROM GDR8164B   Adapter: 0  ID: 1
Read mode   : Secure with NO C2, accurate stream, disable cache
Read offset correction : 102
Overread into Lead-In and Lead-Out : No

Used output format : C:\Programmi\Exact Audio Copy\flac.exe   (User Defined Encoder)
                     128 kBit/s
                     Additional command line options : -V -8 -T "artist=%a" -T "title=%t" -T "album=%g" -T "date=%y" -T "tracknumber=%n" -T "genre=%m" %s                  

Other options      : 
    Fill up missing offset samples with silence : Yes
    Delete leading and trailing silent blocks : No
    Installed external ASPI interface


Track  1
     Filename D:\TORRENTS\Nat King Cole 2 - The Complete Capitol Recordings of the N.K.C. Trio (1991) [FLAC] {Mosaic MD18 - 138}\CD 9\01 - I Never Had A Chance (L2).wav

     Pre-gap length  0:00:02.44

     Peak level 88.9 %
     Track quality 100.0 %
     Test CRC 380B03BC
     Copy CRC 380B03BC
     Copy OK

Track  2
     Filename D:\TORRENTS\Nat King Cole 2 - The Complete Capitol Recordings of the N.K.C. Trio (1991) [FLAC] {Mosaic MD18 - 138}\CD 9\02 - This Is My Night To Dream (M2).wav

     Pre-gap length  0:00:02.06

     Peak level 92.9 %
     Track quality 100.0 %
     Test CRC 1449C149
     Copy CRC 1449C149
     Copy OK

Track  3
     Filename D:\TORRENTS\Nat King Cole 2 - The Complete Capitol Recordings of the N.K.C. Trio (1991) [FLAC] {Mosaic MD18 - 138}\CD 9\03 - Makin' Whoopee (M2).wav

     Pre-gap length  0:00:02.30

     Peak level 87.5 %
     Track quality 100.0 %
     Test CRC 7C5538FB
     Copy CRC 7C5538FB
     Copy OK

Track  4
     Filename D:\TORRENTS\Nat King Cole 2 - The Complete Capitol Recordings of the N.K.C. Trio (1991) [FLAC] {Mosaic MD18 - 138}\CD 9\04 - There I've Said It Again (M2).wav

     Pre-gap length  0:00:02.36

     Peak level 92.6 %
     Track quality 100.0 %
     Test CRC 08288ECE
     Copy CRC 08288ECE
     Copy OK

Track  5
     Filename D:\TORRENTS\Nat King Cole 2 - The Complete Capitol Recordings of the N.K.C. Trio (1991) [FLAC] {Mosaic MD18 - 138}\CD 9\05 - I'll String Along With You (N2).wav

     Pre-gap length  0:00:02.30

     Peak level 98.4 %
     Track quality 100.0 %
     Test CRC D9589035
     Copy CRC D9589035
     Copy OK

Track  6
     Filename D:\TORRENTS\Nat King Cole 2 - The Complete Capitol Recordings of the N.K.C. Trio (1991) [FLAC] {Mosaic MD18 - 138}\CD 9\06 - Ooh, Kickeroonie (N2).wav

     Pre-gap length  0:00:02.60

     Peak level 98.4 %
     Track quality 100.0 %
     Test CRC 31DC14DC
     Copy CRC 31DC14DC
     Copy OK

Track  7
     Filename D:\TORRENTS\Nat King Cole 2 - The Complete Capitol Recordings of the N.K.C. Trio (1991) [FLAC] {Mosaic MD18 - 138}\CD 9\07 - (It's Easy To See) The Trouble With Me, Is You (N2).wav

     Pre-gap length  0:00:02.46

     Peak level 98.4 %
     Track quality 100.0 %
     Test CRC 8172CA99
     Copy CRC 8172CA99
     Copy OK

Track  8
     Filename D:\TORRENTS\Nat King Cole 2 - The Complete Capitol Recordings of the N.K.C. Trio (1991) [FLAC] {Mosaic MD18 - 138}\CD 9\08 - Too Marvelous For Words (N2).wav

     Pre-gap length  0:00:02.00

     Peak level 82.5 %
     Track quality 99.9 %
     Test CRC E0999022
     Copy CRC E0999022
     Copy OK

Track  9
     Filename D:\TORRENTS\Nat King Cole 2 - The Complete Capitol Recordings of the N.K.C. Trio (1991) [FLAC] {Mosaic MD18 - 138}\CD 9\09 - Three Little Words (O2).wav

     Pre-gap length  0:00:02.42

     Peak level 98.4 %
     Track quality 100.0 %
     Test CRC B5E454CA
     Copy CRC B5E454CA
     Copy OK

Track 10
     Filename D:\TORRENTS\Nat King Cole 2 - The Complete Capitol Recordings of the N.K.C. Trio (1991) [FLAC] {Mosaic MD18 - 138}\CD 9\10 - Moonlight In Vermont (O2).wav

     Pre-gap length  0:00:02.26

     Peak level 88.7 %
     Track quality 100.0 %
     Test CRC F3DECC83
     Copy CRC F3DECC83
     Copy OK

Track 11
     Filename D:\TORRENTS\Nat King Cole 2 - The Complete Capitol Recordings of the N.K.C. Trio (1991) [FLAC] {Mosaic MD18 - 138}\CD 9\11 - Poor Butterfly (O2).wav

     Pre-gap length  0:00:02.16

     Peak level 61.3 %
     Track quality 100.0 %
     Test CRC 0ED9A9FD
     Copy CRC 0ED9A9FD
     Copy OK

Track 12
     Filename D:\TORRENTS\Nat King Cole 2 - The Complete Capitol Recordings of the N.K.C. Trio (1991) [FLAC] {Mosaic MD18 - 138}\CD 9\12 - How High The Moon (O2).wav

     Pre-gap length  0:00:02.77

     Peak level 93.1 %
     Track quality 100.0 %
     Test CRC F9244C78
     Copy CRC F9244C78
     Copy OK

Track 13
     Filename D:\TORRENTS\Nat King Cole 2 - The Complete Capitol Recordings of the N.K.C. Trio (1991) [FLAC] {Mosaic MD18 - 138}\CD 9\13 - I'll Never Be The Same (O2).wav

     Pre-gap length  0:00:02.36

     Peak level 81.6 %
     Track quality 100.0 %
     Test CRC 8EF4B921
     Copy CRC 8EF4B921
     Copy OK

Track 14
     Filename D:\TORRENTS\Nat King Cole 2 - The Complete Capitol Recordings of the N.K.C. Trio (1991) [FLAC] {Mosaic MD18 - 138}\CD 9\14 - These Foolish Things (O2).wav

     Pre-gap length  0:00:02.86

     Peak level 98.4 %
     Track quality 100.0 %
     Test CRC 6EFDE3A1
     Copy CRC 6EFDE3A1
     Copy OK

Track 15
     Filename D:\TORRENTS\Nat King Cole 2 - The Complete Capitol Recordings of the N.K.C. Trio (1991) [FLAC] {Mosaic MD18 - 138}\CD 9\15 - Cole Capers (O2).wav

     Pre-gap length  0:00:02.62

     Peak level 91.6 %
     Track quality 100.0 %
     Test CRC F94DC9E9
     Copy CRC F94DC9E9
     Copy OK

Track 16
     Filename D:\TORRENTS\Nat King Cole 2 - The Complete Capitol Recordings of the N.K.C. Trio (1991) [FLAC] {Mosaic MD18 - 138}\CD 9\16 - Blues In My Shower (O2).wav

     Pre-gap length  0:00:02.33

     Peak level 98.4 %
     Track quality 100.0 %
     Test CRC 1C40DDE6
     Copy CRC 1C40DDE6
     Copy OK

Track 17
     Filename D:\TORRENTS\Nat King Cole 2 - The Complete Capitol Recordings of the N.K.C. Trio (1991) [FLAC] {Mosaic MD18 - 138}\CD 9\17 - I Wanna Be A Friend Of Yours (P2).wav

     Pre-gap length  0:00:02.30

     Peak level 88.6 %
     Track quality 100.0 %
     Test CRC 01EF0BE9
     Copy CRC 01EF0BE9
     Copy OK

Track 18
     Filename D:\TORRENTS\Nat King Cole 2 - The Complete Capitol Recordings of the N.K.C. Trio (1991) [FLAC] {Mosaic MD18 - 138}\CD 9\18 - Ke Mo Ki Mo (The Magic Song) (P2).wav

     Pre-gap length  0:00:02.60

     Peak level 94.3 %
     Track quality 100.0 %
     Test CRC 54C10EA4
     Copy CRC 54C10EA4
     Copy OK

Track 19
     Filename D:\TORRENTS\Nat King Cole 2 - The Complete Capitol Recordings of the N.K.C. Trio (1991) [FLAC] {Mosaic MD18 - 138}\CD 9\19 - Three Blind Mice (P2).wav

     Pre-gap length  0:00:02.26

     Peak level 98.4 %
     Track quality 99.9 %
     Test CRC 40D0393E
     Copy CRC 40D0393E
     Copy OK

No errors occured


End of status report



Create a new paste based on this one


Comments: