[ create a new paste ] login | about

Link: http://codepad.org/cucRn8om    [ raw code | fork ]

Plain Text, pasted on Nov 14:
Exact Audio Copy V0.99 prebeta 5 from 4. May 2009

Отчёт EAC об извлечении, выполненном 17. декабря 2010, 18:21

The Moody Blues / Every Good Boy Deserves Favour [MFSL UDCD 643]

Дисковод: Optiarc DVD RW AD-7200S   Adapter: 2  ID: 0

Режим чтения                 : Достоверность
Использование точного потока : Да
Отключение кэша аудио        : Да
Использование указателей C2  : Нет

Коррекция смещения при чтении                     : 48
Способность читать области Lead-in и Lead-out     : Нет
Заполнение пропущенных сэмплов тишиной            : Да
Удаление блоков с тишиной в начале и конце        : Нет
При вычислениях CRC использовались нулевые сэмплы : Да
Интерфейс                                         : Встроенный Win32-интерфейс для Win NT/2000

Выходной формат : Внутренние WAV-операции
Формат сэмплов  : 44.100 Гц; 16 бит; стерео


TOC извлечённого CD

     Трек |   Старт  | Длительность | Начальный сектор | Конечный сектор 
    ---------------------------------------------------------------------
       1  |  0:00.00 |    4:41.22   |           0      |      21096      
       2  |  4:41.22 |    2:56.38   |       21097      |      34334      
       3  |  7:37.60 |    3:34.00   |       34335      |      50384      
       4  | 11:11.60 |    3:42.00   |       50385      |      67034      
       5  | 14:53.60 |    4:38.12   |       67035      |      87896      
       6  | 19:31.72 |    5:40.63   |       87897      |     113459      
       7  | 25:12.60 |    4:24.20   |      113460      |     133279      
       8  | 29:37.05 |    4:14.37   |      133280      |     152366      
       9  | 33:51.42 |    6:21.15   |      152367      |     180956      


Характеристики диапазона извлечения и сообщения об ошибках

Выбранный диапазон

     Имя файла E:\МОИ РАЗДАЧИ\The Moody Blues - Every Good Boy Deserves Favour [MFSL UDCD 643]\The Moody Blues - Every Good Boy Deserves Favour [MFSL UDCD 643].wav

     Пиковый уровень 90.9 %
     Качество диапазона 100.0 %
     CRC теста 6441D6E0
     CRC копии 6441D6E0
     Копирование... OK

Ошибок не произошло

 
AccurateRip: сводка
 
Трек  1  точное извлечение (доверие 6)  [3C71EFCE]
Трек  2  точное извлечение (доверие 6)  [0C8B2AA4]
Трек  3  точное извлечение (доверие 6)  [ECF3202E]
Трек  4  точное извлечение (доверие 6)  [24239381]
Трек  5  точное извлечение (доверие 6)  [1D67691C]
Трек  6  точное извлечение (доверие 6)  [5E13F412]
Трек  7  точное извлечение (доверие 6)  [ED3409AC]
Трек  8  точное извлечение (доверие 6)  [0AACCEBA]
Трек  9  точное извлечение (доверие 6)  [678FFB61]
 
Все треки извлечены точно

Конец отчёта



Create a new paste based on this one


Comments: