[ create a new paste ] login | about

Link: http://codepad.org/cvNx9O4p    [ raw code | fork ]

Plain Text, pasted on Apr 20:
foobar2000 1.3.17 / Dynamic Range Meter 1.1.1
log date: 2018-04-19 13:58:14

--------------------------------------------------------------------------------
Analyzed: ISAO TOMITA / PLANET ZERO freedommune 0 zero session with Dawn Chorus
--------------------------------------------------------------------------------

DR         Peak         RMS     Duration Track
--------------------------------------------------------------------------------
DR9      -14.07 dB   -32.71 dB      4:01 01-Reincarnation (Itokawa and Hayabusa)
DR9       -5.32 dB   -26.44 dB      7:47 02-Eternity ("Liebestod" from "Tristan und Isolde")
DR9       -5.58 dB   -27.09 dB      9:58 03-Mars
DR8      -13.45 dB   -30.61 dB      1:29 04-Venus
DR8       -6.33 dB   -25.13 dB      2:21 05-Mercury
DR9      -11.41 dB   -30.61 dB      3:53 06-Jupiter
DR10      -5.27 dB   -27.89 dB      7:08 07-Rising Sun
DR8       -5.27 dB   -25.15 dB      2:40 08-Saturn
--------------------------------------------------------------------------------

Number of tracks:  8
Official DR value: DR9

Samplerate:        2822400 Hz / PCM Samplerate: 176400 Hz
Channels:          6
Bits per sample:   1
Bitrate:           16934 kbps
Codec:             DST64
================================================================================

--------------------------------------------------------------------------------
Analyzed: ISAO TOMITA / PLANET ZERO freedommune 0 zero session with Dawn Chorus
--------------------------------------------------------------------------------

DR         Peak         RMS     Duration Track
--------------------------------------------------------------------------------
DR15     -11.81 dB   -30.05 dB      4:01 01-Reincarnation (Itokawa and Hayabusa)
DR11      -5.03 dB   -21.75 dB      7:47 02-Eternity ("Liebestod" from "Tristan und Isolde")
DR13      -5.50 dB   -23.30 dB      9:58 03-Mars
DR11     -12.99 dB   -27.96 dB      1:29 04-Venus
DR13      -5.10 dB   -21.78 dB      2:21 05-Mercury
DR13     -10.45 dB   -27.56 dB      3:53 06-Jupiter
DR14      -5.16 dB   -24.32 dB      7:08 07-Rising Sun
DR12      -5.32 dB   -21.59 dB      2:40 08-Saturn
--------------------------------------------------------------------------------

Number of tracks:  8
Official DR value: DR13

Samplerate:        2822400 Hz / PCM Samplerate: 176400 Hz
Channels:          2
Bits per sample:   1
Bitrate:           5645 kbps
Codec:             DST64
================================================================================




Create a new paste based on this one


Comments: