[ create a new paste ] login | about

Link: http://codepad.org/d4AcLW0X    [ raw code | fork ]

Plain Text, pasted on Jan 5:
Exact Audio Copy V1.0 beta 3 from 29. August 2011

EAC extraction logfile from 24. March 2012, 12:43

Bryan Adams / Cuts Like a Knife [AFZ 127]

Used drive  : Optiarc DVD RW AD-7200S   Adapter: 2  ID: 1

Read mode               : Secure
Utilize accurate stream : Yes
Defeat audio cache      : Yes
Make use of C2 pointers : No

Read offset correction                      : 48
Overread into Lead-In and Lead-Out          : No
Fill up missing offset samples with silence : Yes
Delete leading and trailing silent blocks   : No
Null samples used in CRC calculations       : Yes
Used interface                              : Installed external ASPI interface

Used output format              : User Defined Encoder
Selected bitrate                : 1024 kBit/s
Quality                         : High
Add ID3 tag                     : No
Command line compressor         : C:\Program Files\Exact Audio Copy\wavpack.exe
Additional command line options : -hlmx2 %source% %dest%


TOC of the extracted CD

     Track |   Start  |  Length  | Start sector | End sector 
    ---------------------------------------------------------
        1  |  0:00.00 |  3:17.13 |         0    |    14787   
        2  |  3:17.13 |  4:42.30 |     14788    |    35967   
        3  |  7:59.43 |  3:21.00 |     35968    |    51042   
        4  | 11:20.43 |  3:32.11 |     51043    |    66953   
        5  | 14:52.54 |  5:21.16 |     66954    |    91044   
        6  | 20:13.70 |  3:58.74 |     91045    |   108968   
        7  | 24:12.69 |  3:40.55 |    108969    |   125523   
        8  | 27:53.49 |  2:58.47 |    125524    |   138920   
        9  | 30:52.21 |  3:11.45 |    138921    |   153290   
       10  | 34:03.66 |  3:06.49 |    153291    |   167289   


Range status and errors

Selected range

     Filename C:\lossless\Bryan Adams\Bryan Adams - Cuts Like a Knife [AFZ 127].wav

     Peak level 100.0 %
     Extraction speed 3.4 X
     Range quality 100.0 %
     Test CRC 9DC8FE5D
     Copy CRC 9DC8FE5D
     Copy OK

No errors occurred

 
AccurateRip summary
 
Track  1  not present in database
Track  2  not present in database
Track  3  not present in database
Track  4  not present in database
Track  5  not present in database
Track  6  not present in database
Track  7  not present in database
Track  8  not present in database
Track  9  not present in database
Track 10  not present in database
 
None of the tracks are present in the AccurateRip database

End of status report

---- CUETools DB Plugin V2.1.3

[CTDB TOCID: Btv8ZDDa0V.5PPpNEQe7O6J7cHo-] found, Submit result: Btv8ZDDa0V.5PPpNEQe7O6J7cHo- has been confirmed
[94452960] (2/2) Accurately ripped


==== Log checksum 8DAFF2F93F95CF1AFC90E4F8B19B7E4DCBE8F6478BE776EBDE0389D349B8DE57 ====



Create a new paste based on this one


Comments: