[ create a new paste ] login | about

Link: http://codepad.org/d51qeDVK    [ raw code | fork ]

Plain Text, pasted on Oct 12:
foobar2000 1.3.17 / Dynamic Range Meter 1.1.1
log date: 2018-10-12 12:03:35

--------------------------------------------------------------------------------
Analyzed: Elvis Costello & The Imposters / Look Now (Deluxe Edition)
--------------------------------------------------------------------------------

DR         Peak         RMS     Duration Track
--------------------------------------------------------------------------------
DR6        0.00 dB    -6.85 dB      5:34 01-Under Lime
DR7        0.00 dB    -9.88 dB      2:29 02-Don't Look Now
DR5        0.00 dB    -6.60 dB      4:17 03-Burnt Sugar Is So Bitter
DR6       -0.01 dB    -7.49 dB      3:53 04-Stripping Paper
DR6        0.00 dB    -6.98 dB      3:33 05-Unwanted Number
DR5        0.00 dB    -6.75 dB      4:26 06-I Let The Sun Go Down
DR5        0.00 dB    -7.01 dB      3:46 07-Mr. & Mrs. Hush
DR8        0.00 dB   -10.19 dB      3:39 08-Photographs Can Lie
DR6        0.00 dB    -7.57 dB      3:18 09-Dishonor The Stars
DR5        0.00 dB    -7.02 dB      4:50 10-Suspect My Tears
DR5        0.00 dB    -7.20 dB      3:22 11-Why Won't Heaven Help Me?
DR5        0.00 dB    -6.58 dB      4:09 12-He's Given Me Things
DR8       -0.07 dB   -10.20 dB      4:02 13-Isabelle In Tears
DR5        0.00 dB    -6.86 dB      3:33 14-Adieu Paris (L'Envie Des Etoiles)
DR5        0.00 dB    -7.35 dB      3:00 15-The Final Mrs. Curtain
DR8       -0.03 dB   -11.80 dB      4:31 16-You Shouldn’t Look At Me That Way (From The Motion Picture “Film Stars Don’t Die In Liverpool”)
--------------------------------------------------------------------------------

Number of tracks:  16
Official DR value: DR6

Samplerate:        44100 Hz
Channels:          2
Bits per sample:   16
Bitrate:           731 kbps
Codec:             FLAC
================================================================================




Create a new paste based on this one


Comments: