[ create a new paste ] login | about

Link: http://codepad.org/d7APE7Ow    [ raw code | fork ]

Plain Text, pasted on Feb 15:
foobar2000 1.2.2 / Dynamic Range Meter 1.1.1
log date: 2013-04-24 09:39:26

--------------------------------------------------------------------------------
Analyzed: Rush / Counterparts (2013 AF Hybrid SACD)
--------------------------------------------------------------------------------

DR         Peak         RMS     Duration Track
--------------------------------------------------------------------------------
DR12      -0.16 dB   -14.12 dB      6:04 01-Animate
DR10      -1.94 dB   -13.60 dB      4:48 02-Stick It Out
DR12      -0.51 dB   -14.15 dB      4:49 03-Cut to the Chase
DR12      -0.43 dB   -15.42 dB      5:05 04-Nobody's Here
DR13      -0.45 dB   -14.60 dB      4:40 05-Between Sun & Moon
DR12      -0.06 dB   -13.71 dB      5:48 06-Alien Shore
DR12      -0.49 dB   -14.76 dB      5:03 07-The Speed of Love
DR12      -0.84 dB   -14.31 dB      4:52 08-Double Agent
DR12      -0.61 dB   -15.37 dB      4:08 09-Leave That Thing Alone
DR13      -0.05 dB   -15.06 dB      4:27 10-Cold Fire
DR14      -0.01 dB   -15.64 dB      5:16 11-Everyday Glory
--------------------------------------------------------------------------------

Number of tracks:  11
Official DR value: DR12

Samplerate:        88200 Hz
Channels:          2
Bits per sample:   24
Bitrate:           2758 kbps
Codec:             FLAC
================================================================================




Create a new paste based on this one


Comments: