[ create a new paste ] login | about

Link: http://codepad.org/d9kXMVZI    [ raw code | fork ]

Plain Text, pasted on Jul 12:
foobar2000 1.3.17 / Dynamic Range Meter 1.1.1
log date: 2018-07-12 11:12:10

--------------------------------------------------------------------------------
Analyzed: Sarah Vaughan / Supreme Jazz
--------------------------------------------------------------------------------

DR         Peak         RMS     Duration Track
--------------------------------------------------------------------------------
DR15      -0.06 dB   -24.22 dB      3:17 01-Black Coffee
DR11      -0.06 dB   -17.49 dB      3:03 02-Just Friends
DR12      -0.04 dB   -18.48 dB      2:21 03-Lonely Girl
DR12      -0.06 dB   -18.07 dB      3:13 04-You┤re Mine, You
DR11      -0.06 dB   -17.04 dB      3:23 05-The Nearness Of You
DR13      -0.04 dB   -19.41 dB      3:02 06-I┤m Crazy To Love You
DR11      -0.05 dB   -17.71 dB      2:56 07-Don┤t Be Afraid
DR11      -0.06 dB   -16.39 dB      3:05 08-Thinking Of You
DR12      -0.06 dB   -19.26 dB      3:12 09-Deep Purple
DR12      -0.01 dB   -21.05 dB      2:36 10-My Reverie
DR12      -0.10 dB   -18.47 dB      2:53 11-After Hours
DR10      -0.08 dB   -14.18 dB      2:59 12-Time To Go
DR11      -0.06 dB   -15.71 dB      2:59 13-Corner To Corner
DR11      -0.08 dB   -15.71 dB      3:06 14-Street Of Dreams
DR10      -0.06 dB   -15.75 dB      2:51 15-Mighty Lonesome Feelin┤
DR10      -0.06 dB   -15.06 dB      3:00 16-Sinner Or Saint
DR11      -0.06 dB   -17.57 dB      3:20 17-I┤ll Know
DR11      -0.06 dB   -16.35 dB      3:00 18-These Things I Offer You  
DR13      -0.06 dB   -19.59 dB      2:23 19-I Confess 
DR14      -0.07 dB   -20.43 dB      2:38 20-A Blues Serenade
--------------------------------------------------------------------------------

Number of tracks:  20
Official DR value: DR12

Samplerate:        88200 Hz
Channels:          6
Bits per sample:   24
Bitrate:           6938 kbps
Codec:             FLAC
================================================================================




Create a new paste based on this one


Comments: