[ create a new paste ] login | about

Link: http://codepad.org/dAWD2dCo    [ raw code | fork ]

Plain Text, pasted on Jan 3:
foobar2000 1.3.17 / Dynamic Range Meter 1.1.1
log date: 2018-11-22 19:36:02

--------------------------------------------------------------------------------
Analyzed: Various Artists / SA-CD SHM SAMPLER
--------------------------------------------------------------------------------

DR         Peak         RMS     Duration Track
--------------------------------------------------------------------------------
DR11      -7.05 dB   -19.70 dB      3:14 01-Mercy Mercy Me (The Ecology)
DR11      -5.79 dB   -20.11 dB      6:07 02-I'm Not In Love
DR12      -6.06 dB   -20.73 dB      6:58 03-Sometime World
DR12      -5.30 dB   -20.93 dB      8:50 04-Stormy Monday
DR11      -8.78 dB   -22.21 dB      4:15 05-Corcovado
DR14      -5.33 dB   -23.33 dB      4:38 06-They Can't Take That Away From Me
DR13      -5.68 dB   -21.69 dB      5:53 07-Oleo
DR15      -5.60 dB   -22.99 dB      6:46 08-St. Thomas
DR14      -6.31 dB   -26.66 dB     11:32 09-Brahms: Ein deutsches Requiem  -1. Selig sind, die da Lied tragen
DR13      -5.49 dB   -23.32 dB      6:48 10-Berlioz: Symphonie fantastique  -4. Marche au supplice
DR13      -4.73 dB   -24.16 dB      5:42 11-Stravinsky: Le Sacre du printemps  -Glorification de l'Elue - Evocation des ancetres - Action rituelle des ancetres
--------------------------------------------------------------------------------

Number of tracks:  11
Official DR value: DR12

Samplerate:        2822400 Hz / PCM Samplerate: 176400 Hz
Channels:          2
Bits per sample:   1
Bitrate:           5645 kbps
Codec:             DSD64
================================================================================




Create a new paste based on this one


Comments: