[ create a new paste ] login | about

Link: http://codepad.org/dBoe93Et    [ raw code | fork ]

Plain Text, pasted on Jul 23:
foobar2000 1.3 / Dynamic Range Meter 1.1.1
log date: 2015-03-16 12:29:00

--------------------------------------------------------------------------------
Analyzed: The Band / Rock Of Ages (2014 SHM-SACD)
--------------------------------------------------------------------------------

DR         Peak         RMS     Duration Track
--------------------------------------------------------------------------------
DR16      -7.98 dB   -30.35 dB      0:58 01-Introduction
DR15      -0.17 dB   -17.89 dB      5:00 02-Don't Do It
DR15      -1.07 dB   -19.30 dB      4:05 03-King Harvest (Has Surely Come)
DR15      -1.71 dB   -19.38 dB      3:39 04-Caledonia Mission
DR14      -0.32 dB   -17.53 dB      3:33 05-Get Up Jake
DR15      -0.78 dB   -17.65 dB      3:53 06-The W.S. Walcott Medicine Show
DR13      -1.47 dB   -17.24 dB      4:38 07-Stage Fright
DR14      -0.16 dB   -16.60 dB      4:35 08-The Night They Drove Old Dixie Down
DR15      -0.11 dB   -17.61 dB      3:59 09-Across The Great Divide
DR15      -0.32 dB   -16.73 dB      4:07 10-This Wheel's On Fire
DR13      -1.30 dB   -17.43 dB      4:36 11-Rag Mama Rag
DR15      -0.73 dB   -18.21 dB      5:33 12-The Weight
DR14      -0.99 dB   -17.54 dB      4:14 13-The Shape I'm In
DR14      -0.99 dB   -18.40 dB      4:48 14-Unfaithful Servant
DR14      -0.29 dB   -16.65 dB      4:23 15-Life Is A Carnival
DR12      -4.80 dB   -20.11 dB      7:47 16-The Genetic Method
DR14      -0.83 dB   -17.01 dB      5:25 17-Chest Fever
DR14      -0.14 dB   -16.62 dB      4:29 18-(I Don't Want To) Hang Up My Rock And Roll Shoes
--------------------------------------------------------------------------------

Number of tracks:  18
Official DR value: DR14

Samplerate:        88200 Hz
Channels:          2
Bits per sample:   24
Bitrate:           2663 kbps
Codec:             FLAC
================================================================================




Create a new paste based on this one


Comments: