[ create a new paste ] login | about

Link: http://codepad.org/dEv8znJ7    [ raw code | fork ]

Plain Text, pasted on Jan 14:
foobar2000 1.5 / Dynamic Range Meter 1.1.1
log date: 2020-01-14 21:45:36

--------------------------------------------------------------------------------
Analyzed: Gentle Giant / Unburied Treasure: Gentle Giant (Steven Wilson 5.1 Remix)
--------------------------------------------------------------------------------

DR         Peak         RMS     Duration Track
--------------------------------------------------------------------------------
DR14      -0.10 dB   -20.16 dB      6:25 01-Giant
DR14      -0.10 dB   -23.85 dB      4:28 02-Funny Ways
DR15      -0.10 dB   -19.17 dB      6:01 03-Alucard
DR13      -3.17 dB   -21.87 dB      3:47 04-Isn't It Quiet And Cold?
DR14      -0.10 dB   -21.82 dB      9:04 05-Nothing At All
DR13      -0.51 dB   -18.52 dB      5:28 06-Why Not?
DR11      -0.49 dB   -18.77 dB      1:47 07-The Queen
--------------------------------------------------------------------------------

Number of tracks:  7
Official DR value: DR13

Samplerate:        96000 Hz
Channels:          6
Bits per sample:   24
Bitrate:           6285 kbps
Codec:             FLAC
================================================================================




Create a new paste based on this one


Comments: