[ create a new paste ] login | about

Link: http://codepad.org/dNLmQ9B4    [ raw code | fork ]

Plain Text, pasted on Feb 24:
Exact Audio Copy V1.3 from 2. September 2016

EAC extraction logfile from 7. January 2017, 20:12

Chic / C'est Chic

Used drive  : PIONEER DVD-RW  DVR-112D   Adapter: 1  ID: 1

Read mode               : Secure
Utilize accurate stream : Yes
Defeat audio cache      : Yes
Make use of C2 pointers : No

Read offset correction                      : 48
Overread into Lead-In and Lead-Out          : No
Fill up missing offset samples with silence : Yes
Delete leading and trailing silent blocks   : No
Null samples used in CRC calculations       : Yes
Used interface                              : Native Win32 interface for Win NT & 2000
Gap handling                                : Appended to previous track

Used output format              : User Defined Encoder
Selected bitrate                : 1024 kBit/s
Quality                         : High
Add ID3 tag                     : No
Command line compressor         : C:\Program Files (x86)\Exact Audio Copy\Flac\flac.exe
Additional command line options : -8 -V -T "ARTIST=%artist%" -T "TITLE=%title%" -T "ALBUM=%albumtitle%" -T "DATE=%year%" -T "TRACKNUMBER=%tracknr%" -T "TOTALTRACKS=%numtracks%" -T "GENRE=%genre%" -T "ALBUMARTIST=%albumartist%" -T "ALBUM ARTIST=%albumartist%" -T "COMMENT=EAC Secure Mode, Test & Copy, AccurateRip, FLAC -8" %source%


TOC of the extracted CD

     Track |   Start  |  Length  | Start sector | End sector 
    ---------------------------------------------------------
        1  |  0:00.32 |  4:44.05 |        32    |    21336   
        2  |  4:44.37 |  5:31.38 |     21337    |    46199   
        3  | 10:16.00 |  5:04.67 |     46200    |    69066   
        4  | 15:20.67 |  4:26.73 |     69067    |    89089   
        5  | 19:47.65 |  6:57.60 |     89090    |   120424   
        6  | 26:45.50 |  7:11.62 |    120425    |   152811   
        7  | 33:57.37 |  4:29.20 |    152812    |   173006   
        8  | 38:26.57 |  3:42.25 |    173007    |   189681   


Track  1

     Filename L:\2017\FLAC\Chic - Original Album Series (2011) [FLAC] (5CD Rhino Records 8122797595)\CD2 - C'est Chic\01 - Chic Cheer.wav

     Pre-gap length  0:00:02.32

     Peak level 98.8 %
     Extraction speed 4.4 X
     Track quality 100.0 %
     Test CRC AA463D4C
     Copy CRC AA463D4C
     Accurately ripped (confidence 59)  [6C836E34]  (AR v2)
     Copy OK

Track  2

     Filename L:\2017\FLAC\Chic - Original Album Series (2011) [FLAC] (5CD Rhino Records 8122797595)\CD2 - C'est Chic\02 - Le Freak.wav

     Pre-gap length  0:00:00.65

     Peak level 97.7 %
     Extraction speed 5.1 X
     Track quality 100.0 %
     Test CRC 0A00DE4E
     Copy CRC 0A00DE4E
     Accurately ripped (confidence 59)  [145AFE1C]  (AR v2)
     Copy OK

Track  3

     Filename L:\2017\FLAC\Chic - Original Album Series (2011) [FLAC] (5CD Rhino Records 8122797595)\CD2 - C'est Chic\03 - Savoir Faire.wav

     Pre-gap length  0:00:02.53

     Peak level 98.8 %
     Extraction speed 5.6 X
     Track quality 100.0 %
     Test CRC 061D8263
     Copy CRC 061D8263
     Accurately ripped (confidence 59)  [3C9D47B8]  (AR v2)
     Copy OK

Track  4

     Filename L:\2017\FLAC\Chic - Original Album Series (2011) [FLAC] (5CD Rhino Records 8122797595)\CD2 - C'est Chic\04 - Happy Man.wav

     Pre-gap length  0:00:02.47

     Peak level 95.3 %
     Extraction speed 5.9 X
     Track quality 100.0 %
     Test CRC 08B63A11
     Copy CRC 08B63A11
     Accurately ripped (confidence 59)  [7423B41A]  (AR v2)
     Copy OK

Track  5

     Filename L:\2017\FLAC\Chic - Original Album Series (2011) [FLAC] (5CD Rhino Records 8122797595)\CD2 - C'est Chic\05 - I Want Your Love.wav

     Pre-gap length  0:00:01.60

     Peak level 98.8 %
     Extraction speed 6.7 X
     Track quality 100.0 %
     Test CRC 9EA01195
     Copy CRC 9EA01195
     Accurately ripped (confidence 59)  [6AFD84F9]  (AR v2)
     Copy OK

Track  6

     Filename L:\2017\FLAC\Chic - Original Album Series (2011) [FLAC] (5CD Rhino Records 8122797595)\CD2 - C'est Chic\06 - At Last I Am Free.wav

     Pre-gap length  0:00:02.53

     Peak level 98.8 %
     Extraction speed 7.2 X
     Track quality 100.0 %
     Test CRC 59B51A50
     Copy CRC 59B51A50
     Accurately ripped (confidence 59)  [B70D6136]  (AR v2)
     Copy OK

Track  7

     Filename L:\2017\FLAC\Chic - Original Album Series (2011) [FLAC] (5CD Rhino Records 8122797595)\CD2 - C'est Chic\07 - Sometimes You Win.wav

     Pre-gap length  0:00:02.00

     Peak level 98.8 %
     Extraction speed 6.5 X
     Track quality 99.9 %
     Test CRC 4F80EF9B
     Copy CRC 4F80EF9B
     Accurately ripped (confidence 59)  [B6222120]  (AR v2)
     Copy OK

Track  8

     Filename L:\2017\FLAC\Chic - Original Album Series (2011) [FLAC] (5CD Rhino Records 8122797595)\CD2 - C'est Chic\08 - (Funny) Bone.wav

     Pre-gap length  0:00:02.12

     Peak level 98.8 %
     Extraction speed 7.2 X
     Track quality 100.0 %
     Test CRC CAA339F0
     Copy CRC CAA339F0
     Accurately ripped (confidence 58)  [8015FD0D]  (AR v2)
     Copy OK


All tracks accurately ripped

No errors occurred

End of status report

---- CUETools DB Plugin V2.1.6

[CTDB TOCID: 0rVOHeNI5ZpsENRGh9LQnkoGKHA-] found
Submit result: 0rVOHeNI5ZpsENRGh9LQnkoGKHA- has been confirmed
Track | CTDB Status
  1   | (62/62) Accurately ripped
  2   | (62/62) Accurately ripped
  3   | (62/62) Accurately ripped
  4   | (61/62) Accurately ripped
  5   | (61/62) Accurately ripped
  6   | (62/62) Accurately ripped
  7   | (62/62) Accurately ripped
  8   | (61/62) Accurately ripped


==== Log checksum 54FE0E9CE3586747E577133F48E6B78E0DF1141DC37D478F365B86FAD9694E39 ====



Create a new paste based on this one


Comments: