[ create a new paste ] login | about

Link: http://codepad.org/dQEEQtAV    [ raw code | fork ]

Plain Text, pasted on Apr 20:
foobar2000 1.3.17 / Dynamic Range Meter 1.1.1
log date: 2018-04-19 13:36:38

--------------------------------------------------------------------------------
Analyzed: Isao TOMITA / MOUSSORGSKY-TOMITA: PICTURES AT AN EXHIBITION Ultimate Edition
--------------------------------------------------------------------------------

DR         Peak         RMS     Duration Track
--------------------------------------------------------------------------------
DR9       -5.66 dB   -27.34 dB      4:45 01-Pictures at an Exhibition 1: Promenade; Gnomes
DR8       -8.19 dB   -27.52 dB      6:22 02-Pictures at an Exhibition 2: Promenade; The Old Castle
DR8      -13.13 dB   -29.76 dB      1:27 03-Pictures at an Exhibition 3: Promenade; Tuileries
DR8       -8.40 dB   -26.88 dB      3:19 04-Pictures at an Exhibition 4: Bydlo
DR9       -5.51 dB   -26.67 dB      2:07 05-Pictures at an Exhibition 5: Promenade; Ballet of the Chicks in Their Shell
DR10      -5.28 dB   -26.86 dB      3:06 06-Pictures at an Exhibition 6: Samuel Goldenberg and Schmuyle
DR8       -5.82 dB   -24.58 dB      1:13 07-Pictures at an Exhibition 7: The Market Place at Limoges
DR7       -8.24 dB   -25.27 dB      2:37 08-Pictures at an Exhibition 8: Catacombs
DR8       -9.85 dB   -28.75 dB      2:11 09-Pictures at an Exhibition 9: Con mortuis in lingua mortua
DR8       -5.87 dB   -24.19 dB      3:42 10-Pictures at an Exhibition 10: The Hut of Baba Yaga
DR8       -5.74 dB   -24.48 dB      6:23 11-Pictures at an Exhibition 11: The Great Gate at Kiev
DR9       -7.89 dB   -28.91 dB      4:34 12-Sheherazade (Rimsky-Korsakov)
DR8       -9.52 dB   -29.09 dB      5:20 13-The Sea Named "Solaris" <J.S.Bach/Tomita>
--------------------------------------------------------------------------------

Number of tracks:  13
Official DR value: DR8

Samplerate:        2822400 Hz / PCM Samplerate: 176400 Hz
Channels:          6
Bits per sample:   1
Bitrate:           16934 kbps
Codec:             DST64
================================================================================

--------------------------------------------------------------------------------
Analyzed: Isao TOMITA / MOUSSORGSKY-TOMITA: PICTURES AT AN EXHIBITION Ultimate Edition
--------------------------------------------------------------------------------

DR         Peak         RMS     Duration Track
--------------------------------------------------------------------------------
DR14      -5.62 dB   -24.93 dB      4:45 01-Pictures at an Exhibition 1: Promenade; Gnomes
DR12      -9.93 dB   -25.41 dB      6:22 02-Pictures at an Exhibition 2: Promenade; The Old Castle
DR12     -10.72 dB   -27.50 dB      1:27 03-Pictures at an Exhibition 3: Promenade; Tuileries
DR12      -7.51 dB   -24.72 dB      3:19 04-Pictures at an Exhibition 4: Bydlo
DR13      -5.93 dB   -23.96 dB      2:07 05-Pictures at an Exhibition 5: Promenade; Ballet of the Chicks in Their Shell
DR14      -5.38 dB   -23.52 dB      3:06 06-Pictures at an Exhibition 6: Samuel Goldenberg and Schmuyle
DR12      -6.24 dB   -22.81 dB      1:13 07-Pictures at an Exhibition 7: The Market Place at Limoges
DR11      -6.64 dB   -22.35 dB      2:37 08-Pictures at an Exhibition 8: Catacombs
DR11      -8.06 dB   -25.94 dB      2:11 09-Pictures at an Exhibition 9: Con mortuis in lingua mortua
DR12      -5.60 dB   -21.15 dB      3:42 10-Pictures at an Exhibition 10: The Hut of Baba Yaga
DR12      -5.34 dB   -21.25 dB      6:23 11-Pictures at an Exhibition 11: The Great Gate at Kiev
DR14      -5.71 dB   -26.21 dB      4:34 12-Sheherazade (Rimsky-Korsakov)
DR13      -9.59 dB   -27.05 dB      5:20 13-The Sea Named "Solaris" <J.S.Bach/Tomita>
--------------------------------------------------------------------------------

Number of tracks:  13
Official DR value: DR12

Samplerate:        2822400 Hz / PCM Samplerate: 176400 Hz
Channels:          2
Bits per sample:   1
Bitrate:           5645 kbps
Codec:             DSD64
================================================================================




Create a new paste based on this one


Comments: