[ create a new paste ] login | about

Link: http://codepad.org/dYtkhoPv    [ raw code | fork ]

Plain Text, pasted on Apr 13:
foobar2000 1.1.18 / Dynamic Range Meter 1.1.1
log date: 2013-01-18 14:54:06

--------------------------------------------------------------------------------
Analyzed: Rory Gallagher / Big Guns - The Very Best Of (Hybrid SACD - Disc 1)
--------------------------------------------------------------------------------

DR         Peak         RMS     Duration Track
--------------------------------------------------------------------------------
DR5       -1.42 dB    -7.80 dB      3:53 01-Big Guns
DR6       -1.65 dB    -9.14 dB      2:48 02-What's Going On
DR6       -1.45 dB    -8.92 dB      4:50 03-Tattoo'd Lady
DR6       -1.46 dB    -9.27 dB      3:57 04-Bad Penny
DR4       -1.43 dB    -7.89 dB      4:56 05-Shadow Play
DR7       -1.05 dB    -9.08 dB      4:52 06-Kickback City
DR5       -1.20 dB    -7.36 dB      4:05 07-Bourbon
DR4       -1.34 dB    -8.09 dB      5:48 08-Sinnerboy
DR6       -1.40 dB    -9.02 dB      5:15 09-Used To Be
DR6       -0.01 dB    -8.73 dB      4:57 10-Goin' To My Hometown
DR4       -1.15 dB    -7.54 dB      6:47 11-Bullfrog Blues
DR5       -1.42 dB    -7.59 dB      4:25 12-Messin' With The Kid
--------------------------------------------------------------------------------

Number of tracks:  12
Official DR value: DR5

Samplerate:        88200 Hz
Channels:          2
Bits per sample:   24
Bitrate:           2679 kbps
Codec:             FLAC
================================================================================


foobar2000 1.1.18 / Dynamic Range Meter 1.1.1
log date: 2013-01-18 14:55:11

--------------------------------------------------------------------------------
Analyzed: Rory Gallagher / Big Guns - The Very Best Of (Hybrid SACD - Disc 2)
--------------------------------------------------------------------------------

DR         Peak         RMS     Duration Track
--------------------------------------------------------------------------------
DR7       -0.18 dB    -9.33 dB      2:38 01-The Loop
DR6       -0.01 dB    -9.10 dB      4:16 02-Born On The Wrong Side Of Time
DR7       -0.15 dB    -9.10 dB      6:34 03-A Million Miles Away
DR11      -0.31 dB   -12.69 dB      5:23 04-Calling Card
DR9       -0.28 dB   -12.46 dB      3:48 05-Out On The Western Plain
DR7       -0.22 dB    -8.96 dB      5:20 06-Lonesome Highway
DR9       -0.27 dB   -10.58 dB      3:33 07-Just The Smile
DR7       -0.10 dB    -8.65 dB      5:40 08-I'm Not Awake Yet
DR6       -0.04 dB    -8.42 dB      6:02 09-Daughter Of The Everglades
DR8       -0.63 dB   -10.97 dB      4:24 10-I'll Admit You're Gone
DR8       -0.24 dB    -9.87 dB      3:38 11-The King Of Zydeco
DR7       -0.17 dB    -8.28 dB      4:07 12-They Don't Make Them Like You Anymore
--------------------------------------------------------------------------------

Number of tracks:  12
Official DR value: DR8

Samplerate:        88200 Hz
Channels:          2
Bits per sample:   24
Bitrate:           2920 kbps
Codec:             FLAC
================================================================================




Create a new paste based on this one


Comments: