[ create a new paste ] login | about

Link: http://codepad.org/daXW9uXQ    [ raw code | fork ]

Plain Text, pasted on Aug 23:
foobar2000 1.3 / Dynamic Range Meter 1.1.1
log date: 2014-02-20 15:38:52

--------------------------------------------------------------------------------
Analyzed: Cream / Disraeli Gears (2013 SHM-SACD)
--------------------------------------------------------------------------------

DR         Peak         RMS     Duration Track
--------------------------------------------------------------------------------
DR12      -0.18 dB   -15.00 dB      2:47 01-Strange Brew (Stereo)
DR12      -0.84 dB   -14.06 dB      4:12 02-Sunshine Of Your Love (Stereo)
DR12      -2.00 dB   -15.87 dB      3:03 03-World Of Pain (Stereo)
DR11      -0.29 dB   -15.20 dB      3:35 04-Dance The Night Away (Stereo)
DR12      -0.01 dB   -14.44 dB      3:31 05-Blue Condition (Stereo)
DR12      -0.08 dB   -14.49 dB      2:47 06-Tales Of Brave Ulysses (Stereo)
DR11      -0.04 dB   -13.95 dB      2:33 07-SWLABR (Stereo)
DR12      -1.23 dB   -17.81 dB      3:28 08-We're Going Wrong (Stereo)
DR11      -1.50 dB   -14.63 dB      2:26 09-Outside Woman Blues (Stereo)
DR13      -0.92 dB   -15.08 dB      3:07 10-Take It Back (Stereo)
DR11      -4.95 dB   -19.47 dB      1:48 11-Mother's Lament (Stereo)
DR10      -1.62 dB   -13.76 dB      2:02 12-Lawdy Mama (Version 1 - Stereo)
DR10      -1.76 dB   -14.03 dB      2:48 13-Lawdy Mama (Version 2 - Stereo)
DR12      -0.74 dB   -16.16 dB      3:12 14-Blue Condition (Alternate version - Stereo)
DR11      -0.54 dB   -13.40 dB      2:47 15-Strange Brew (Mono)
DR11      -0.94 dB   -14.03 dB      4:12 16-Sunshine Of Your Love (Mono)
DR11      -2.31 dB   -15.34 dB      3:07 17-World Of Pain (Mono)
DR11      -1.67 dB   -15.53 dB      3:35 18-Dance The Night Away (Mono)
DR12      -2.65 dB   -16.46 dB      3:31 19-Blue Condition (Mono)
DR11      -0.93 dB   -14.09 dB      2:52 20-Tales Of Brave Ulysses (Mono)
DR11      -0.86 dB   -13.70 dB      2:33 21-SWLABR (Mono)
DR11      -2.63 dB   -17.36 dB      3:28 22-We're Going Wrong (Mono)
DR11      -2.08 dB   -14.48 dB      2:26 23-Outside Woman Blues (Mono)
DR12      -1.49 dB   -14.60 dB      3:08 24-Take It Back (Mono)
DR12      -4.92 dB   -20.23 dB      1:49 25-Mother's Lament (Mono)
DR10      -2.49 dB   -14.54 dB      2:03 26-Lawdy Mama (Version 1 - Mono)
DR11      -1.43 dB   -14.84 dB      2:47 27-Lawdy Mama (Version 2 - Mono)
DR11      -2.61 dB   -15.54 dB      3:14 28-Blue Condition (Alternate version - Mono)
--------------------------------------------------------------------------------

Number of tracks:  28
Official DR value: DR11

Samplerate:        88200 Hz
Channels:          2
Bits per sample:   24
Bitrate:           2617 kbps
Codec:             FLAC
================================================================================




Create a new paste based on this one


Comments: