[ create a new paste ] login | about

Link: http://codepad.org/dfD1kpwE    [ raw code | fork ]

Plain Text, pasted on Nov 23:
foobar2000 1.3.17 / Dynamic Range Meter 1.1.1
log date: 2018-11-22 19:22:05

--------------------------------------------------------------------------------
Analyzed: Various Artists / The RS500 Super Audio CD Sampler
--------------------------------------------------------------------------------

DR         Peak         RMS     Duration Track
--------------------------------------------------------------------------------
DR13      -3.66 dB   -23.81 dB      4:19 01-Bob Dylan: Simple Twist Of Fate
DR12      -3.46 dB   -21.08 dB      6:52 02-Pink Floyd: Money
DR12      -4.66 dB   -20.81 dB      3:17 03-The Who: Pinball Wizard
DR14      -5.81 dB   -25.01 dB      6:34 04-Herbie Hancock: Watermelon Man
DR14      -6.55 dB   -27.76 dB      3:16 05-Norah Jones: Come Away With Me
DR13      -6.16 dB   -21.93 dB      3:14 06-Elton John: Goodbye Yellow Brick Road
DR9      -10.52 dB   -22.56 dB      3:30 07-Billy Joel: Movin' Out (Anthony's Song)
DR11      -5.54 dB   -29.76 dB      5:36 08-Miles Davis: Blue In Green
DR12      -3.43 dB   -20.90 dB      4:36 09-Aerosmith: Sweet Emotion
--------------------------------------------------------------------------------

Number of tracks:  9
Official DR value: DR12

Samplerate:        2822400 Hz / PCM Samplerate: 176400 Hz
Channels:          6
Bits per sample:   1
Bitrate:           16934 kbps
Codec:             DST64
================================================================================

--------------------------------------------------------------------------------
Analyzed: Various Artists / The RS500 Super Audio CD Sampler
--------------------------------------------------------------------------------

DR         Peak         RMS     Duration Track
--------------------------------------------------------------------------------
DR14      -5.06 dB   -22.46 dB      4:17 01-Bob Dylan: Simple Twist Of Fate
DR12      -3.23 dB   -18.95 dB      6:43 02-Pink Floyd: Money
DR8       -9.38 dB   -19.80 dB      3:01 03-The Who: Pinball Wizard
DR15      -4.01 dB   -22.12 dB      6:24 04-Herbie Hancock: Watermelon Man
DR12      -7.94 dB   -24.03 dB      3:18 05-Norah Jones: Come Away With Me
DR9       -5.04 dB   -17.12 dB      3:14 06-Elton John: Goodbye Yellow Brick Road
DR14      -4.51 dB   -21.32 dB      3:31 07-Billy Joel: Movin' Out (Anthony's Song)
DR15      -6.95 dB   -28.15 dB      5:36 08-Miles Davis: Blue In Green
DR11      -2.96 dB   -16.68 dB      4:34 09-Aerosmith: Sweet Emotion
--------------------------------------------------------------------------------

Number of tracks:  9
Official DR value: DR12

Samplerate:        2822400 Hz / PCM Samplerate: 176400 Hz
Channels:          2
Bits per sample:   1
Bitrate:           5645 kbps
Codec:             DST64
================================================================================




Create a new paste based on this one


Comments: