[ create a new paste ] login | about

Link: http://codepad.org/ditA1V8p    [ raw code | fork ]

Plain Text, pasted on Feb 15:
foobar2000 1.3 / Dynamic Range Meter 1.1.1
log date: 2014-09-08 16:42:02

--------------------------------------------------------------------------------
Analyzed: Rush / Presto (2014 AF Hybrid SACD)
--------------------------------------------------------------------------------

DR         Peak         RMS     Duration Track
--------------------------------------------------------------------------------
DR14      -1.21 dB   -17.81 dB      5:01 01-Show Don't Tell
DR15      -0.21 dB   -18.41 dB      4:33 02-Chain Lightning
DR14      -1.46 dB   -18.10 dB      4:51 03-The Pass
DR15      -0.01 dB   -17.71 dB      5:24 04-War Paint
DR15      -2.19 dB   -19.60 dB      4:07 05-Scars
DR14      -0.33 dB   -18.63 dB      5:46 06-Presto
DR14      -0.04 dB   -17.12 dB      4:48 07-Superconductor
DR15      -0.75 dB   -18.31 dB      4:00 08-Anagram (for Mongo)
DR14      -0.63 dB   -18.08 dB      4:30 09-Red Tide
DR16      -0.52 dB   -18.55 dB      4:11 10-Hand Over Fist
DR14      -0.71 dB   -18.55 dB      5:04 11-Available Light
--------------------------------------------------------------------------------

Number of tracks:  11
Official DR value: DR15

Samplerate:        88200 Hz
Channels:          2
Bits per sample:   24
Bitrate:           2625 kbps
Codec:             FLAC
================================================================================




Create a new paste based on this one


Comments: