[ create a new paste ] login | about

Link: http://codepad.org/dkpPFXzO    [ raw code | fork ]

Plain Text, pasted on Dec 21:
Exact Audio Copy V1.0 beta 3 from 29. August 2011

EAC extraction logfile from 27. August 2014, 0:30

Suede / A New Morning

Used drive  : PIONEER DVD-RW  DVR-118L   Adapter: 2  ID: 0

Read mode               : Secure
Utilize accurate stream : Yes
Defeat audio cache      : Yes
Make use of C2 pointers : No

Read offset correction                      : 6
Overread into Lead-In and Lead-Out          : No
Fill up missing offset samples with silence : Yes
Delete leading and trailing silent blocks   : No
Null samples used in CRC calculations       : Yes
Used interface                              : Native Win32 interface for Win NT & 2000
Gap handling                                : Appended to previous track

Used output format              : User Defined Encoder
Selected bitrate                : 1024 kBit/s
Quality                         : High
Add ID3 tag                     : No
Command line compressor         : C:\Program Files (x86)\Exact Audio Copy\Flac\flac.exe
Additional command line options : -8 -V -T "ARTIST=%artist%" -T "TITLE=%title%" -T "ALBUM=%albumtitle%" -T "DATE=%year%" -T "TRACKNUMBER=%tracknr%" -T "GENRE=%genre%" -T "PERFORMER=%albuminterpret%" -T "COMPOSER=%composer%" %haslyrics%--tag-from-file=LYRICS="%lyricsfile%"%haslyrics% -T "ALBUMARTIST=%albumartist%" -T "DISCNUMBER=%cdnumber%" -T "TOTALDISCS=%totalcds%" -T "TOTALTRACKS=%numtracks%" -T "COMMENT=%comment%" %source% -o %dest%


TOC of the extracted CD

     Track |   Start  |  Length  | Start sector | End sector 
    ---------------------------------------------------------
        1  |  0:00.00 |  2:56.26 |         0    |    13225   
        2  |  2:56.26 |  4:11.14 |     13226    |    32064   
        3  |  7:07.40 |  3:13.32 |     32065    |    46571   
        4  | 10:20.72 |  3:39.06 |     46572    |    63002   
        5  | 14:00.03 |  3:38.00 |     63003    |    79352   
        6  | 17:38.03 |  2:51.40 |     79353    |    92217   
        7  | 20:29.43 |  4:35.40 |     92218    |   112882   
        8  | 25:05.08 |  3:44.50 |    112883    |   129732   
        9  | 28:49.58 |  2:15.47 |    129733    |   139904   
       10  | 31:05.30 |  3:06.31 |    139905    |   153885   
       11  | 34:11.61 |  4:29.54 |    153886    |   174114   
       12  | 38:41.40 |  4:05.40 |    174115    |   192529   


Track  1

     Filename D:\CDRip\01 - Positivity.wav

     Pre-gap length  0:00:02.00

     Peak level 97.1 %
     Extraction speed 1.0 X
     Track quality 100.0 %
     Test CRC CB2CC635
     Copy CRC CB2CC635
     Track not present in AccurateRip database
     Copy OK

Track  2

     Filename D:\CDRip\02 - Obsessions.wav

     Peak level 97.1 %
     Extraction speed 1.1 X
     Track quality 100.0 %
     Test CRC 25424FD4
     Copy CRC 25424FD4
     Track not present in AccurateRip database
     Copy OK

Track  3

     Filename D:\CDRip\03 - Lonely Girls.wav

     Pre-gap length  0:00:00.73

     Peak level 97.1 %
     Extraction speed 1.2 X
     Track quality 100.0 %
     Test CRC B1DCC5EE
     Copy CRC B1DCC5EE
     Track not present in AccurateRip database
     Copy OK

Track  4

     Filename D:\CDRip\04 - Lost in TV.wav

     Pre-gap length  0:00:00.13

     Peak level 97.1 %
     Extraction speed 1.3 X
     Track quality 100.0 %
     Test CRC 7DC27600
     Copy CRC 7DC27600
     Track not present in AccurateRip database
     Copy OK

Track  5

     Filename D:\CDRip\05 - Beautiful Loser.wav

     Peak level 97.1 %
     Extraction speed 1.4 X
     Track quality 100.0 %
     Test CRC 5CEFCCC4
     Copy CRC 5CEFCCC4
     Track not present in AccurateRip database
     Copy OK

Track  6

     Filename D:\CDRip\06 - Streetlife.wav

     Peak level 97.1 %
     Extraction speed 1.4 X
     Track quality 100.0 %
     Test CRC 8CECFDD2
     Copy CRC 8CECFDD2
     Track not present in AccurateRip database
     Copy OK

Track  7

     Filename D:\CDRip\07 - Astrogirl.wav

     Pre-gap length  0:00:00.01

     Peak level 97.1 %
     Extraction speed 1.4 X
     Track quality 99.9 %
     Test CRC A0FEE9B7
     Copy CRC A0FEE9B7
     Track not present in AccurateRip database
     Copy OK

Track  8

     Filename D:\CDRip\08 - Untitled.wav

     Peak level 97.1 %
     Extraction speed 1.7 X
     Track quality 100.0 %
     Test CRC 10ADD410
     Copy CRC 10ADD410
     Track not present in AccurateRip database
     Copy OK

Track  9

     Filename D:\CDRip\09 - ...Morning.wav

     Peak level 97.1 %
     Extraction speed 1.5 X
     Track quality 100.0 %
     Test CRC 97C3DD42
     Copy CRC 97C3DD42
     Track not present in AccurateRip database
     Copy OK

Track 10

     Filename D:\CDRip\10 - One Hit To The Body.wav

     Pre-gap length  0:00:00.34

     Peak level 97.1 %
     Extraction speed 1.7 X
     Track quality 100.0 %
     Test CRC F1952019
     Copy CRC F1952019
     Track not present in AccurateRip database
     Copy OK

Track 11

     Filename D:\CDRip\11 - When The Rain Falls.wav

     Pre-gap length  0:00:00.82

     Peak level 97.1 %
     Extraction speed 1.9 X
     Track quality 100.0 %
     Test CRC 11C58CEA
     Copy CRC 11C58CEA
     Track not present in AccurateRip database
     Copy OK

Track 12

     Filename D:\CDRip\12 - Oceans.wav

     Pre-gap length  0:00:02.48

     Peak level 97.0 %
     Extraction speed 1.9 X
     Track quality 100.0 %
     Test CRC B48B62E2
     Copy CRC B48B62E2
     Track not present in AccurateRip database
     Copy OK


None of the tracks are present in the AccurateRip database

No errors occurred

End of status report

---- CUETools DB Plugin V2.1.3

[CTDB TOCID: oXla3KPqxeHXX3dTn0H0P22YDXQ-] disk not present in database, Submit result: oXla3KPqxeHXX3dTn0H0P22YDXQ- has been uploaded


==== Log checksum 647E2615F4DA611227956D819D38D35A24A1A59B0F404D3AD30825CBFEAF619A ====



Create a new paste based on this one


Comments: