[ create a new paste ] login | about

Link: http://codepad.org/dm3zDM9G    [ raw code | fork ]

Plain Text, pasted on Jul 23:
foobar2000 1.3.17 / Dynamic Range Meter 1.1.1
log date: 2018-07-23 13:34:48

--------------------------------------------------------------------------------
Analyzed: The Band / Islands
--------------------------------------------------------------------------------

DR         Peak         RMS     Duration Track
--------------------------------------------------------------------------------
DR12      -7.49 dB   -21.24 dB      3:55 01-Right As Rain
DR12      -7.58 dB   -21.90 dB      3:17 02-Street Walker
DR13      -7.54 dB   -22.81 dB      3:12 03-Let The Night Fall
DR13      -8.63 dB   -23.32 dB      3:09 04-Ain't That A Lot Of Love
DR13      -7.16 dB   -22.49 dB      3:39 05-Christmas Must Be Tonight
DR12      -7.27 dB   -21.63 dB      3:55 06-Islands
DR13      -7.37 dB   -21.92 dB      4:14 07-The Saga Of Pepote Rouge
DR12      -7.55 dB   -23.01 dB      3:10 08-Georgia On My Mind
DR13      -7.83 dB   -22.62 dB      3:51 09-Knockin' Lost John
DR13      -7.30 dB   -22.66 dB      2:52 10-Livin' In A Dream
--------------------------------------------------------------------------------

Number of tracks:  10
Official DR value: DR13

Samplerate:        2822400 Hz / PCM Samplerate: 176400 Hz
Channels:          2
Bits per sample:   1
Bitrate:           5645 kbps
Codec:             DSD64
================================================================================




Create a new paste based on this one


Comments: