[ create a new paste ] login | about

Link: http://codepad.org/dnAjCf4Z    [ raw code | fork ]

Plain Text, pasted on Feb 23:
Exact Audio Copy V1.0 beta 3 from 29. August 2011

EAC extraction logfile from 11. July 2013, 20:31

Foreigner / 4 [MFSL UDSACD 2053]

Used drive  : Optiarc DVD RW AD-7200S   Adapter: 5  ID: 1

Read mode               : Secure
Utilize accurate stream : Yes
Defeat audio cache      : Yes
Make use of C2 pointers : No

Read offset correction                      : 48
Overread into Lead-In and Lead-Out          : No
Fill up missing offset samples with silence : Yes
Delete leading and trailing silent blocks   : No
Null samples used in CRC calculations       : Yes
Used interface                              : Installed external ASPI interface

Used output format              : User Defined Encoder
Selected bitrate                : 1024 kBit/s
Quality                         : High
Add ID3 tag                     : No
Command line compressor         : D:\Program Files (x86)\Exact Audio Copy\wavpack.exe
Additional command line options : -hlmx2 %source% %dest%


TOC of the extracted CD

     Track |   Start  |  Length  | Start sector | End sector 
    ---------------------------------------------------------
        1  |  0:00.00 |  3:50.53 |         0    |    17302   
        2  |  3:50.53 |  4:19.64 |     17303    |    36791   
        3  |  8:10.42 |  4:12.49 |     36792    |    55740   
        4  | 12:23.16 |  4:52.32 |     55741    |    77672   
        5  | 17:15.48 |  3:27.73 |     77673    |    93270   
        6  | 20:43.46 |  4:31.17 |     93271    |   113612   
        7  | 25:14.63 |  4:52.68 |    113613    |   135580   
        8  | 30:07.56 |  4:46.19 |    135581    |   157049   
        9  | 34:54.00 |  3:52.63 |    157050    |   174512   
       10  | 38:46.63 |  3:50.66 |    174513    |   191828   


Range status and errors

Selected range

     Filename D:\eac\FOREIGNER 3\Foreigner - 4 [MFSL UDSACD 2053].wav

     Peak level 98.0 %
     Extraction speed 3.9 X
     Range quality 99.9 %
     Test CRC D05E5760
     Copy CRC D05E5760
     Copy OK

No errors occurred

 
AccurateRip summary
 
Track  1  not present in database
Track  2  not present in database
Track  3  not present in database
Track  4  not present in database
Track  5  not present in database
Track  6  not present in database
Track  7  not present in database
Track  8  not present in database
Track  9  not present in database
Track 10  not present in database
 
None of the tracks are present in the AccurateRip database

End of status report

---- CUETools DB Plugin V2.1.3

[CTDB TOCID: M8otNikESimHTbVjmefi2QYDOeQ-] found, Submit result: M8otNikESimHTbVjmefi2QYDOeQ- has been confirmed
[1acdff36] (3/3) Accurately ripped


==== Log checksum 31981D3177CE5FA6D386DB6B5908F4C500D64EF1E9B7FAA7D7011B8711D9FCCF ====



Create a new paste based on this one


Comments: