[ create a new paste ] login | about

Link: http://codepad.org/dnhLWXdS    [ raw code | fork ]

Plain Text, pasted on Dec 20:
Exact Audio Copy V1.3 from 2. September 2016

EAC extraction logfile from 16. December 2018, 15:31

Bruce Springsteen / Springsteen on Broadway (Disc One)

Used drive  : ASUS    BW-12D1S-U   Adapter: 1  ID: 1

Read mode               : Secure
Utilize accurate stream : Yes
Defeat audio cache      : Yes
Make use of C2 pointers : No

Read offset correction                      : 667
Overread into Lead-In and Lead-Out          : No
Fill up missing offset samples with silence : Yes
Delete leading and trailing silent blocks   : No
Null samples used in CRC calculations       : Yes
Used interface                              : Native Win32 interface for Win NT & 2000
Gap handling                                : Appended to previous track

Used output format              : User Defined Encoder
Selected bitrate                : 1024 kBit/s
Quality                         : High
Add ID3 tag                     : No
Command line compressor         : C:\Program Files (x86)\Exact Audio Copy\FLAC\FLAC.EXE
Additional command line options : -V -8 -T "Genre=%genre%" -T "Artist=%artist%" -T "Title=%title%" -T "Album=%albumtitle%" -T "Date=%year%" -T "Tracknumber=%tracknr%" -T "Comment=%comment%" %source%


TOC of the extracted CD

     Track |   Start  |  Length  | Start sector | End sector 
    ---------------------------------------------------------
        1  |  0:00.00 |  2:05.10 |         0    |     9384   
        2  |  2:05.10 | 11:59.46 |      9385    |    63355   
        3  | 14:04.56 |  7:21.13 |     63356    |    96443   
        4  | 21:25.69 |  3:59.46 |     96444    |   114414   
        5  | 25:25.40 |  4:28.68 |    114415    |   134582   
        6  | 29:54.33 |  6:22.64 |    134583    |   163296   
        7  | 36:17.22 |  6:09.51 |    163297    |   191022   
        8  | 42:26.73 |  4:24.63 |    191023    |   210885   
        9  | 46:51.61 |  3:19.07 |    210886    |   225817   
       10  | 50:10.68 |  5:28.33 |    225818    |   250450   
       11  | 55:39.26 | 11:34.71 |    250451    |   302571   
       12  | 67:14.22 |  4:01.72 |    302572    |   320718   


Track  1

     Filename E:\Torrents of Autumn\Springsteen, Bruce [2018] Springsteen on Broadway (2-CD set)\Disc Two\01. Growin' Up (intro).wav

     Pre-gap length  0:00:02.00

     Peak level 98.8 %
     Extraction speed 3.5 X
     Track quality 99.9 %
     Test CRC E6ED2039
     Copy CRC E6ED2039
     Track not present in AccurateRip database
     Copy OK

Track  2

     Filename E:\Torrents of Autumn\Springsteen, Bruce [2018] Springsteen on Broadway (2-CD set)\Disc Two\02. Growin' Up.wav

     Peak level 98.9 %
     Extraction speed 6.0 X
     Track quality 100.0 %
     Test CRC CD14C344
     Copy CRC CD14C344
     Track not present in AccurateRip database
     Copy OK

Track  3

     Filename E:\Torrents of Autumn\Springsteen, Bruce [2018] Springsteen on Broadway (2-CD set)\Disc Two\03. My Hometown (intro).wav

     Peak level 89.0 %
     Extraction speed 6.7 X
     Track quality 100.0 %
     Test CRC 32D1ED99
     Copy CRC 32D1ED99
     Track not present in AccurateRip database
     Copy OK

Track  4

     Filename E:\Torrents of Autumn\Springsteen, Bruce [2018] Springsteen on Broadway (2-CD set)\Disc Two\04. My Hometown.wav

     Peak level 98.9 %
     Extraction speed 6.9 X
     Track quality 100.0 %
     Test CRC 2DA818E0
     Copy CRC 2DA818E0
     Track not present in AccurateRip database
     Copy OK

Track  5

     Filename E:\Torrents of Autumn\Springsteen, Bruce [2018] Springsteen on Broadway (2-CD set)\Disc Two\05. My Father's House (intro).wav

     Peak level 52.1 %
     Extraction speed 6.5 X
     Track quality 99.9 %
     Test CRC 9D444FD1
     Copy CRC 9D444FD1
     Track not present in AccurateRip database
     Copy OK

Track  6

     Filename E:\Torrents of Autumn\Springsteen, Bruce [2018] Springsteen on Broadway (2-CD set)\Disc Two\06. My Father's House.wav

     Peak level 98.8 %
     Extraction speed 7.7 X
     Track quality 100.0 %
     Test CRC 6EA0E1BF
     Copy CRC 6EA0E1BF
     Track not present in AccurateRip database
     Copy OK

Track  7

     Filename E:\Torrents of Autumn\Springsteen, Bruce [2018] Springsteen on Broadway (2-CD set)\Disc Two\07. The Wish (intro).wav

     Peak level 100.0 %
     Extraction speed 8.0 X
     Track quality 100.0 %
     Test CRC D824E138
     Copy CRC D824E138
     Track not present in AccurateRip database
     Copy OK

Track  8

     Filename E:\Torrents of Autumn\Springsteen, Bruce [2018] Springsteen on Broadway (2-CD set)\Disc Two\08. The Wish.wav

     Peak level 98.8 %
     Extraction speed 8.1 X
     Track quality 100.0 %
     Test CRC A2E23683
     Copy CRC A2E23683
     Track not present in AccurateRip database
     Copy OK

Track  9

     Filename E:\Torrents of Autumn\Springsteen, Bruce [2018] Springsteen on Broadway (2-CD set)\Disc Two\09. Thunder Road (intro).wav

     Peak level 98.8 %
     Extraction speed 8.0 X
     Track quality 100.0 %
     Test CRC D6A4DEDE
     Copy CRC D6A4DEDE
     Track not present in AccurateRip database
     Copy OK

Track 10

     Filename E:\Torrents of Autumn\Springsteen, Bruce [2018] Springsteen on Broadway (2-CD set)\Disc Two\10. Thunder Road.wav

     Peak level 98.9 %
     Extraction speed 8.6 X
     Track quality 100.0 %
     Test CRC B2B561C6
     Copy CRC B2B561C6
     Track not present in AccurateRip database
     Copy OK

Track 11

     Filename E:\Torrents of Autumn\Springsteen, Bruce [2018] Springsteen on Broadway (2-CD set)\Disc Two\11. The Promise Land (intro).wav

     Peak level 95.6 %
     Extraction speed 9.5 X
     Track quality 100.0 %
     Test CRC 5D1835F5
     Copy CRC 5D1835F5
     Track not present in AccurateRip database
     Copy OK

Track 12

     Filename E:\Torrents of Autumn\Springsteen, Bruce [2018] Springsteen on Broadway (2-CD set)\Disc Two\12. The Promise Land.wav

     Peak level 98.7 %
     Extraction speed 9.0 X
     Track quality 100.0 %
     Test CRC DAA9A8FC
     Copy CRC DAA9A8FC
     Track not present in AccurateRip database
     Copy OK


None of the tracks are present in the AccurateRip database

No errors occurred

End of status report

---- CUETools DB Plugin V2.1.6

[CTDB TOCID: RT5furZ0LjJ9Rin_WqAHwKqaibA-] found
Submit result: RT5furZ0LjJ9Rin_WqAHwKqaibA- has been confirmed
Track | CTDB Status
  1   | (55/55) Accurately ripped
  2   | (55/55) Accurately ripped
  3   | (55/55) Accurately ripped
  4   | (55/55) Accurately ripped
  5   | (55/55) Accurately ripped
  6   | (55/55) Accurately ripped
  7   | (55/55) Accurately ripped
  8   | (55/55) Accurately ripped
  9   | (55/55) Accurately ripped
 10   | (55/55) Accurately ripped
 11   | (54/55) Accurately ripped
 12   | (55/55) Accurately ripped


==== Log checksum C4D0275666D439CA4B39F4A5DE689AF94391B0DF4235F7C2C630A1EC17A6B822 ====



Create a new paste based on this one


Comments: