[ create a new paste ] login | about

Link: http://codepad.org/dnz3PvM1    [ raw code | fork ]

Plain Text, pasted on Jun 21:
foobar2000 1.3.10 / Dynamic Range Meter 1.1.1
log date: 2016-06-20 23:36:50

--------------------------------------------------------------------------------
Analyzed: The Band / Stage Fright (DCC Gold Disc)
--------------------------------------------------------------------------------

DR         Peak         RMS     Duration Track
--------------------------------------------------------------------------------
DR13       0.00 dB   -14.04 dB      2:38 01-Strawberry Wine
DR12      -0.17 dB   -16.25 dB      3:18 02-Sleeping
DR13       0.00 dB   -14.57 dB      3:29 03-Time To Kill
DR10      -2.07 dB   -13.69 dB      3:53 04-Just Another Whistle Stop
DR12      -2.49 dB   -17.74 dB      3:37 05-All La Glory
DR13       0.00 dB   -14.77 dB      4:03 06-The Shape I'm In
DR11      -0.39 dB   -14.35 dB      3:14 07-The W.S. Walcott Medicine Show
DR11      -0.38 dB   -15.09 dB      4:15 08-Daniel And The Sacred Harp
DR13       0.00 dB   -14.53 dB      3:46 09-Stage Fright
DR12      -0.38 dB   -15.98 dB      4:18 10-The Rumor
--------------------------------------------------------------------------------

Number of tracks:  10
Official DR value: DR12

Samplerate:        44100 Hz
Channels:          2
Bits per sample:   16
Bitrate:           855 kbps
Codec:             FLAC
================================================================================




Create a new paste based on this one


Comments: