[ create a new paste ] login | about

Link: http://codepad.org/dserSw2A    [ raw code | fork ]

Plain Text, pasted on Aug 14:
foobar2000 1.3.17 / Dynamic Range Meter 1.1.1
log date: 2018-08-14 11:42:56

--------------------------------------------------------------------------------
Analyzed: Pete Whitman's  Xtet / Where's When
--------------------------------------------------------------------------------

DR         Peak         RMS     Duration Track
--------------------------------------------------------------------------------
DR16      -0.01 dB   -21.86 dB      6:02 01-Where's When
DR16      -0.74 dB   -21.89 dB      5:57 02-Devil Dance
DR15      -0.97 dB   -22.36 dB      5:54 03-Child's Play
DR16      -5.91 dB   -26.14 dB      4:12 04-In Your Own Sweet Way
DR19      -0.62 dB   -24.63 dB      9:08 05-Epicycle
DR15      -3.99 dB   -23.95 dB      6:19 06-Points Of View
DR15      -0.79 dB   -21.47 dB      4:34 07-Showers
DR19      -0.23 dB   -25.15 dB      9:46 08-Hmm...
DR11     -12.09 dB   -28.09 dB      2:34 09-Sweet Whisperer
DR18      -2.21 dB   -23.70 dB      7:19 10-Star Eyes
--------------------------------------------------------------------------------

Number of tracks:  10
Official DR value: DR16

Samplerate:        88200 Hz
Channels:          2
Bits per sample:   24
Bitrate:           2589 kbps
Codec:             FLAC
================================================================================




Create a new paste based on this one


Comments: