[ create a new paste ] login | about

Link: http://codepad.org/duNloJ7w    [ raw code | fork ]

Plain Text, pasted on Aug 9:
[CUETools log; Date: 8/9/2019 3:06:29 PM; Version: 2.1.5]
[CTDB TOCID: YRi3PNLArGn8leqtCaUeYCcMjYk-] found.
Track | CTDB Status
  1   | (13/16) Accurately ripped
  2   | (15/16) Accurately ripped
  3   | (15/16) Accurately ripped
  4   | (15/16) Accurately ripped
  5   | (16/16) Accurately ripped
  6   | (14/16) Accurately ripped
  7   | (15/16) Accurately ripped
  8   | (15/16) Accurately ripped
  9   | (15/16) Accurately ripped
 10   | (14/16) Accurately ripped
[AccurateRip ID: 000e60a8-0071d44d-89088d0a] found.
Track   [  CRC   |   V2   ] Status
 01     [79c8c8fd|d9d2acaf] (05+20/25) Accurately ripped
 02     [bcbc0ed6|81b16cba] (05+20/25) Accurately ripped
 03     [013c4fa2|5f1fe3b4] (05+20/25) Accurately ripped
 04     [67fc8420|a55f5212] (05+20/25) Accurately ripped
 05     [05bce4b3|86b4accb] (05+20/25) Accurately ripped
 06     [2e1d05ad|8ab86867] (05+20/25) Accurately ripped
 07     [1bc6f1d2|e04ca5ea] (05+20/25) Accurately ripped
 08     [a75ecc0a|4b14ef37] (05+20/25) Accurately ripped
 09     [3cd45297|5ecd3a4f] (05+20/25) Accurately ripped
 10     [c8b12642|d59fb6a5] (05+19/24) Accurately ripped

Track Peak [ CRC32  ] [W/O NULL] 
 --   79.2 [821E508F] [6EC9DBEF]           
 01   53.9 [6E0D76F6] [E2C1A12C]           
 02   57.1 [E39AC1C6] [35E18521]           
 03   77.3 [8AFFCFCB] [8F8011D2]           
 04   73.1 [A5384787] [F6DD6D7B]           
 05   64.5 [AA765021] [CAC1C8B9]           
 06   61.1 [A81D7740] [6D01E791]           
 07   52.8 [832F0137] [D8CA8B0B]           
 08   51.5 [F38A1849] [67BEEE62]           
 09   79.2 [03357961] [10E06E3E]           
 10   66.2 [B9CE8987] [3E213B8E]           



Create a new paste based on this one


Comments: