[ create a new paste ] login | about

Link: http://codepad.org/dyFSq2PL    [ raw code | fork ]

Plain Text, pasted on Nov 27:
foobar2000 1.1.11 / Dynamic Range Meter 1.1.1
log date: 2012-05-25 19:26:09

--------------------------------------------------------------------------------
Analyzed: Bon Jovi featuring Olivia D'Abo / This Left Feels Right (Hybrid SACD) (1)
          Bon Jovi / This Left Feels Right (Hybrid SACD) (2-12)
--------------------------------------------------------------------------------

DR         Peak         RMS     Duration Track
--------------------------------------------------------------------------------
DR9       -0.37 dB   -11.17 dB      3:41 02-Livin' On A Prayer
DR8       -0.37 dB   -10.93 dB      3:44 01-Wanted Dead Or Alive
DR8       -0.53 dB   -10.20 dB      4:27 03-Bad Medicine
DR9       -0.84 dB   -11.78 dB      3:42 04-It's My Life
DR8       -0.58 dB   -10.86 dB      4:27 05-Lay Your Hands On Me
DR9       -0.57 dB   -11.26 dB      3:30 06-You Give Love A Bad Name
DR9       -0.49 dB   -12.37 dB      5:38 07-Bed Of Roses
DR8       -0.01 dB   -11.54 dB      3:45 08-Everyday
DR8       -0.57 dB   -10.16 dB      5:28 09-Born To Be My Baby
DR8       -0.10 dB   -10.69 dB      4:12 10-Keep The Faith
DR8       -0.13 dB   -10.00 dB      4:22 11-I'll Be There For You
DR8       -0.32 dB   -10.82 dB      4:18 12-Always
--------------------------------------------------------------------------------

Number of tracks:  12
Official DR value: DR8

Samplerate:        88200 Hz
Channels:          2
Bits per sample:   24
Bitrate:           2695 kbps
Codec:             FLAC
================================================================================




Create a new paste based on this one


Comments: