[ create a new paste ] login | about

Link: http://codepad.org/e1BY7wTt    [ raw code | fork ]

Plain Text, pasted on Aug 15:
foobar2000 1.3.17 / Dynamic Range Meter 1.1.1
log date: 2018-08-15 09:32:59

--------------------------------------------------------------------------------
Analyzed: Charles Aznavour / Je m'voyais deja
--------------------------------------------------------------------------------

DR         Peak         RMS     Duration Track
--------------------------------------------------------------------------------
DR11      -0.03 dB   -14.18 dB      3:53 01-Les deux guitares
DR10      -1.34 dB   -14.04 dB      2:10 02-Ce jour tant attendu
DR10      -2.34 dB   -16.17 dB      2:15 03-Fraternite
DR12      -1.57 dB   -15.29 dB      2:36 04-J'ai des millions de rien du tout
DR12      -0.01 dB   -14.06 dB      2:48 05-J'ai perdu la tete
DR12      -2.78 dB   -17.16 dB      3:42 06-Tu t'laisses aller
DR10      -2.08 dB   -13.35 dB      2:04 07-Rendez vous a Brasilla
DR10      -2.86 dB   -15.41 dB      3:02 08-La nuit
DR11      -0.90 dB   -13.79 dB      2:27 09-C'n'est pas necessairement ca
DR10      -1.40 dB   -13.77 dB      2:24 10-Plus heureux que moi
DR11      -0.85 dB   -13.84 dB      3:24 11-Je m'voyais deja
DR10      -2.23 dB   -14.78 dB      2:13 12-Quand tu m'embrasses
DR11      -2.66 dB   -19.28 dB      4:31 13-Noel des mages
DR11      -1.95 dB   -15.58 dB      2:37 14-L'amour et la guerre
DR10      -2.75 dB   -15.76 dB      2:28 15-Comme des etrangers
DR10      -1.45 dB   -13.57 dB      2:36 16-Prends le chorus
DR11      -0.91 dB   -14.39 dB      2:10 17-Tu ta vie mon coeur
DR11      -1.86 dB   -14.98 dB      2:31 18-L'enfant prodigue
DR10      -1.38 dB   -14.30 dB      2:41 19-Monsieur est mort
--------------------------------------------------------------------------------

Number of tracks:  19
Official DR value: DR11

Samplerate:        88200 Hz
Channels:          2
Bits per sample:   24
Bitrate:           2679 kbps
Codec:             FLAC
================================================================================




Create a new paste based on this one


Comments: