[ create a new paste ] login | about

Link: http://codepad.org/eGBemb9u    [ raw code | fork ]

Plain Text, pasted on Jun 7:
[CUETools log; Date: 6/6/2016 6:39:55 PM; Version: 2.1.5]
[CTDB TOCID: BTHzPMLuv57xr8Zpq70jqlyCLHU-] found.
Track | CTDB Status
  1   | (12/12) Accurately ripped
  2   | (12/12) Accurately ripped
  3   | (12/12) Accurately ripped
  4   | (12/12) Accurately ripped
  5   | (12/12) Accurately ripped
  6   | (12/12) Accurately ripped
  7   | (12/12) Accurately ripped
  8   | (12/12) Accurately ripped
  9   | (12/12) Accurately ripped
 10   | (12/12) Accurately ripped
 11   | (11/12) Accurately ripped
 12   | (11/12) Accurately ripped
 13   | (12/12) Accurately ripped
 14   | (12/12) Accurately ripped
 15   | (12/12) Accurately ripped
[AccurateRip ID: 00209036-01766d14-d20e5e0f] found.
Track   [  CRC   |   V2   ] Status
 01     [45b807e7|f9c5c3e7] (15+14/29) Accurately ripped
 02     [4886b3c4|13358e82] (16+14/30) Accurately ripped
 03     [67dfbd01|fce622fb] (14+14/28) Accurately ripped
 04     [a8b4d9b9|8e31253f] (16+15/31) Accurately ripped
 05     [d64a35f3|bb2c2dd0] (14+15/29) Accurately ripped
 06     [94d5b148|bb65f3c3] (15+15/30) Accurately ripped
 07     [3b4ebc88|32cf54cf] (14+15/29) Accurately ripped
 08     [192a4b60|29e4506c] (14+15/29) Accurately ripped
 09     [2732f593|37995e0f] (14+14/28) Accurately ripped
 10     [865d087e|11ab1843] (14+14/28) Accurately ripped
 11     [4d3739df|ab6719e4] (14+13/27) Accurately ripped
 12     [54ce4899|a07b84f0] (16+14/30) Accurately ripped
 13     [21132941|56cb8ba4] (15+16/31) Accurately ripped
 14     [c630e95d|830b39cb] (16+16/32) Accurately ripped
 15     [633974f8|813c2102] (14+16/30) Accurately ripped

Track Peak [ CRC32  ] [W/O NULL] [  LOG   ]
 --  100.0 [FB768FF6] [D9CEC12B]   CRC32   
 01   99.0 [065FB7CA] [662E18E5]           
 02   83.8 [A9111D91] [8FAF27EE]           
 03  100.0 [42C8A5D9] [8F40C42F]           
 04   99.8 [A075083F] [F28F920D]           
 05  100.0 [B8755644] [3E7C7C15]           
 06   99.8 [0B490430] [A5C800EC]           
 07   97.2 [011D1DDC] [FFB3797E]           
 08   99.2 [5B35CDA5] [7E9BD446]           
 09   98.4 [1418A86C] [4681CBAA]           
 10   99.8 [81BE1AA8] [856B5981]           
 11   99.1 [CFCB2048] [DD311A06]           
 12   99.8 [0FC98474] [5C1FF69A]           
 13   97.6 [9C2A6EB7] [F9B489EF]           
 14   99.5 [6B90F422] [B13D0C4A]           
 15   99.8 [1D0D51DF] [E81496D7]           



Create a new paste based on this one


Comments: