[ create a new paste ] login | about

Link: http://codepad.org/eGtOBZdT    [ raw code | fork ]

Plain Text, pasted on May 8:
foobar2000 1.4.1 / Dynamic Range Meter 1.1.1
log date: 2019-05-07 18:55:22

--------------------------------------------------------------------------------
Analyzed: ? / ?
--------------------------------------------------------------------------------

DR         Peak         RMS     Duration Track
--------------------------------------------------------------------------------
DR18      -5.68 dB   -29.34 dB     16:19 01-Concierto de Aranjuez
DR15      -9.71 dB   -27.94 dB      3:47 02-Will O' The Wisp
DR14      -7.84 dB   -24.99 dB      3:54 03-The Pan Piper
DR14      -6.24 dB   -25.09 dB      5:32 04-Saeta
DR13      -6.16 dB   -23.54 dB     12:15 05-Solea
DR12      -7.51 dB   -23.53 dB      3:23 06-Song Of Our Country (issused take)
DR16      -7.45 dB   -28.65 dB     12:04 07-Concierto De Aranjuez (Adagio-part one, alternate take)
DR12      -6.86 dB   -26.51 dB      3:32 08-Concierto De Aranjuez (part two, alternate take)
--------------------------------------------------------------------------------

Number of tracks:  8
Official DR value: DR14

Samplerate:        2822400 Hz / PCM Samplerate: 176400 Hz
Channels:          2
Bits per sample:   1
Bitrate:           5645 kbps
Codec:             DSD64
================================================================================




Create a new paste based on this one


Comments: