[ create a new paste ] login | about

Link: http://codepad.org/eHvgHmYh    [ raw code | fork ]

Plain Text, pasted on Aug 20:
[CUETools log; Date: 8/19/2016 5:03:38 PM; Version: 2.1.5]
HDCD: peak extend: none, transient filter: none, gain: none
[CTDB TOCID: .1zSohx2Sc5X8gcK5vt8F01htdk-] found.
Track | CTDB Status
  1   | ( 56/119) Accurately ripped, or (45/119) differs in 25 samples @00:00:26-00:00:27, or (5/119) differs in 7 samples @00:00:26-00:00:27, or (5/119) differs in 16 samples @00:00:26-00:00:27
  2   | (117/119) Accurately ripped
  3   | (118/119) Accurately ripped
  4   | ( 55/119) Accurately ripped, or (45/119) differs in 144 samples @23:01:08-23:01:57, or (5/119) differs in 8 samples @23:01:20-23:01:21,23:01:49-23:01:56, or (5/119) differs in 46 samples @23:01:11-23:01:56
[AccurateRip ID: 0004a161-0013db74-2108d804] found.
Track   [  CRC   |   V2   ] Status
 01     [31547bb2|5ed2e96f] (041+045/184) Accurately ripped
 02     [6b7a8c88|d8856fd4] (042+046/188) Accurately ripped
 03     [533e7ba2|b51f4b31] (043+046/190) Accurately ripped
 04     [042fe398|a5d88cd5] (039+045/181) Accurately ripped
Offsetted by 3:
 01     [6a3b4075] (004/184) Accurately ripped
 02     [e466fcd9] (004/188) Accurately ripped
 03     [763415b0] (004/190) Accurately ripped
 04     [7a343d59] (004/181) Accurately ripped
Offsetted by 6:
 01     [8f3fb4ea] (000/184) No match (V2 was not tested)
 02     [da653081] (031/188) Accurately ripped
 03     [167595ef] (031/190) Accurately ripped
 04     [f2189898] (000/181) No match (V2 was not tested)
Offsetted by 12:
 01     [5e80882d] (000/184) No match (V2 was not tested)
 02     [f049c43a] (000/188) No match (V2 was not tested)
 03     [afb556a1] (000/190) No match (V2 was not tested)
 04     [ebf354dc] (000/181) No match (V2 was not tested)
Offsetted by 584:
 01     [34c6aadb] (000/184) No match (V2 was not tested)
 02     [552b9332] (006/188) Accurately ripped
 03     [0e7d971f] (006/190) Accurately ripped
 04     [fff28cc4] (000/181) No match (V2 was not tested)
Offsetted by 599:
 01     [a26a0279] (000/184) No match (V2 was not tested)
 02     [4be223d6] (002/188) Accurately ripped
 03     [b9233637] (002/190) Accurately ripped
 04     [ba3c3ba5] (000/181) No match (V2 was not tested)

Track Peak [ CRC32  ] [W/O NULL] [  LOG   ]
 --   98.8 [D0A760D6] [2EAD0EA0]   CRC32   
 01   98.8 [77DD37A2] [4018F1A4]           
 02   98.8 [4BA6D1F4] [74D5875E]           
 03   98.8 [C555155B] [BFC8904F]           
 04   98.8 [C8E3DB7D] [90416FB6]           



Create a new paste based on this one


Comments: