[ create a new paste ] login | about

Link: http://codepad.org/eKBRzdA0    [ raw code | fork ]

Plain Text, pasted on Aug 14:
foobar2000 1.2.9 / Dynamic Range Meter 1.1.1
log date: 2014-08-15 00:02:38

--------------------------------------------------------------------------------
Analyzed: Tom Waits / Rain Dogs (2014 SHM-SACD)
--------------------------------------------------------------------------------

DR         Peak         RMS     Duration Track
--------------------------------------------------------------------------------
DR13      -3.67 dB   -19.00 dB      2:46 01-Singapore
DR15      -2.20 dB   -18.94 dB      3:49 02-Clap Hands
DR15      -2.40 dB   -19.92 dB      1:46 03-Cemetery Polka
DR13      -2.98 dB   -18.32 dB      2:47 04-Jockey Full Of Bourbon
DR15      -1.02 dB   -18.80 dB      2:51 05-Tango Till They're Sore
DR14      -0.01 dB   -16.35 dB      2:44 06-Big Black Mariah
DR14      -3.49 dB   -19.01 dB      2:33 07-Diamonds & Gold
DR13      -3.11 dB   -17.64 dB      2:33 08-Hang Down Your Head
DR14      -6.25 dB   -23.15 dB      3:55 09-Time
DR14      -2.83 dB   -19.39 dB      2:57 10-Rain Dogs
DR12      -6.59 dB   -20.72 dB      1:03 11-Midtown
DR12      -3.73 dB   -20.15 dB      1:57 12-9Th & Hennepin
DR14      -2.70 dB   -20.34 dB      4:38 13-Gun Street Girl
DR13      -3.60 dB   -18.92 dB      2:25 14-Union Square
DR14      -4.04 dB   -20.76 dB      4:20 15-Blind Love
DR16      -2.44 dB   -20.60 dB      3:07 16-Walking Spanish
DR14      -1.61 dB   -19.50 dB      3:52 17-Downtown Train
DR15      -2.29 dB   -22.05 dB      1:11 18-Bride Of Rain Dog
DR12      -4.30 dB   -19.54 dB      2:50 19-Anywhere I Lay My Head
--------------------------------------------------------------------------------

Number of tracks:  19
Official DR value: DR14

Samplerate:        88200 Hz
Channels:          2
Bits per sample:   24
Bitrate:           2444 kbps
Codec:             FLAC
================================================================================




Create a new paste based on this one


Comments: