[ create a new paste ] login | about

Link: http://codepad.org/eKL0uKJ5    [ raw code | fork ]

Plain Text, pasted on Sep 11:
1
2
3
4
5
6
7
8
9
10
11
12
13
14
15
16
17
18
19
20
21
22
23
24
25
26
27
28
29
30
31
32
33
34
35
36
37
38
39
40
41
42
43
44
45
46
47
48
49
50
51
52
53
54
55
56
57
58
59
60
61
62
63
64
65
66
67
68
69
70
71
72
73
74
75
76
77
78
79
80
81
82
83
84
85
86
87
88
89
90
91
92
93
94
95
96
97
98
99
100
101
102
103
104
105
106
107
108
109
110
111
112
113
114
115
116
117
118
119
120
121
122
123
124
125
126
127
128
129
130
131
132
133
134
135
136
137
138
139
140
141
142
143
144
145
146
147
148
149
150
151
152
153
154
155
156
157
158
159
160
161
162
163
164
165
166
167
168
169
170
171
172
173
174
175
176
177
178
179
180
181
182
183
184
185
186
187
188
189
190
191
192
193
194
195
196
197
198
199
200
201
202
203
204
205
206
207
208
209
210
211
212
213
214
215
216
217
218
219
220
221
222
223
224
225
226
227
228
229
230
231
232
233
234
235
236
237
238
239
240
241
242
243
244
245
246
247
248
249
250
251
252
253
254
255
256
257
258
259
260
261
262
263
264
265
266
267
268
269
270
271
272
273
274
275
276
277
278
279
280
281
282
283
284
285
286
287
288
289
290
291
292
293
294
295
296
297
298
299
300
301
302
303
304
305
306
307
308
309
310
311
312
313
314
315
316
317
318
319
320
321
322
323
324
325
326
327
328
329
330
331
332
333
334
335
336
337
338
339
340
341
342
343
344
345
346
347
348
349
350
351
352
353
354
355
356
357
358
359
360
361
362
363
364
365
366
367
368
369
370
371
372
373
374
375
376
377
378
379
380
381
382
383
384
385
386
387
388
389
390
391
392
393
394
395
396
397
398
399
400
401
402
403
404
405
406
407
408
409
410
411
412
413
414
415
416
417
418
419
420
421
422
423
424
425
426
427
428
429
430
431
432
433
434
435
436
437
438
439
440
441
442
443
444
445
446
447
448
449
450
451
452
453
454
455
456
457
458
459
460
461
462
463
464
465
466
467
468
469
470
471
472
473
474
475
476
477
478
479
480
481
482
483
484
485
486
487
488
489
490
491
492
493
494
495
496
497
498
499
500
501
502
503
504
505
506
507
508
509
510
511
512
513
514
515
516
517
518
519
520
521
522
523
524
525
526
527
528
529
530
531
532
533
534
535
536
537
538
539
540
541
542
543
544
545
546
547
548
549
550
551
552
553
554
555
556
557
558
559
560
561
562
563
564
565
566
567
568
569
570
571
572
1974 - Bad Company
->
Exact Audio Copy V1.3 from 2. September 2016

EAC extraction logfile from 22. August 2019, 16:18

Bad Company / Bad Company

Used drive  : PLEXTOR BD-R  PX-B950SA   Adapter: 1  ID: 1

Read mode               : Secure
Utilize accurate stream : Yes
Defeat audio cache      : Yes
Make use of C2 pointers : No

Read offset correction                      : 6
Overread into Lead-In and Lead-Out          : No
Fill up missing offset samples with silence : Yes
Delete leading and trailing silent blocks   : No
Null samples used in CRC calculations       : Yes
Used interface                              : Native Win32 interface for Win NT & 2000

Used output format : Internal WAV Routines
Sample format      : 44.100 Hz; 16 Bit; Stereo


TOC of the extracted CD

     Track |   Start  |  Length  | Start sector | End sector 
    ---------------------------------------------------------
        1  |  0:00.00 |  4:17.74 |         0    |    19348   
        2  |  4:17.74 |  3:47.60 |     19349    |    36433   
        3  |  8:05.59 |  5:03.34 |     36434    |    59192   
        4  | 13:09.18 |  4:22.13 |     59193    |    78855   
        5  | 17:31.31 |  4:51.17 |     78856    |   100697   
        6  | 22:22.48 |  5:06.36 |    100698    |   123683   
        7  | 27:29.09 |  3:24.45 |    123684    |   139028   
        8  | 30:53.54 |  4:04.63 |    139029    |   157391   


Range status and errors

Selected range

     Filename C:\Bad Company\2019 Swan Song Years 1974-1982 (6CD Box Set Rhino Records)\1974 Bad Company\Bad Company - Bad Company.wav

     Peak level 98.9 %
     Extraction speed 6.4 X
     Range quality 99.9 %
     Test CRC E09ED7C4
     Copy CRC E09ED7C4
     Copy OK

No errors occurred

 
AccurateRip summary
 
Track  1  accurately ripped (confidence 2)  [D84FDE74]  (AR v2)
Track  2  accurately ripped (confidence 2)  [16B08384]  (AR v2)
Track  3  accurately ripped (confidence 2)  [75E41F4E]  (AR v2)
Track  4  accurately ripped (confidence 2)  [D5857184]  (AR v2)
Track  5  accurately ripped (confidence 2)  [D33DC073]  (AR v2)
Track  6  accurately ripped (confidence 2)  [0662534E]  (AR v2)
Track  7  accurately ripped (confidence 2)  [5706F1B0]  (AR v2)
Track  8  accurately ripped (confidence 2)  [9BE78ED9]  (AR v2)
 
All tracks accurately ripped

End of status report

---- CUETools DB Plugin V2.1.6

[CTDB TOCID: G4BzwYPFvZENswHtJ9rVQfLJdEA-] found
Submit result: already submitted
Track | CTDB Status
  1   | (188/189) Accurately ripped
  2   | (189/189) Accurately ripped
  3   | (189/189) Accurately ripped
  4   | (189/189) Accurately ripped
  5   | (188/189) Accurately ripped
  6   | (189/189) Accurately ripped
  7   | (188/189) Accurately ripped
  8   | (187/189) Accurately ripped


==== Log checksum A278C89CE924050E09F54DA90B5E011BA69A1F696CAF2B25099B04FDF6F4267D ====
->
=========================================================================================================================================================
->
1975 - Straight Shooter
->
Exact Audio Copy V1.3 from 2. September 2016

EAC extraction logfile from 21. August 2019, 19:57

Bad Company / Straight Shooter

Used drive  : PLEXTOR BD-R  PX-B950SA   Adapter: 1  ID: 1

Read mode               : Secure
Utilize accurate stream : Yes
Defeat audio cache      : Yes
Make use of C2 pointers : No

Read offset correction                      : 6
Overread into Lead-In and Lead-Out          : No
Fill up missing offset samples with silence : Yes
Delete leading and trailing silent blocks   : No
Null samples used in CRC calculations       : Yes
Used interface                              : Native Win32 interface for Win NT & 2000

Used output format : Internal WAV Routines
Sample format      : 44.100 Hz; 16 Bit; Stereo


TOC of the extracted CD

     Track |   Start  |  Length  | Start sector | End sector 
    ---------------------------------------------------------
        1  |  0:00.00 |  3:38.34 |         0    |    16383   
        2  |  3:38.34 |  5:16.66 |     16384    |    40149   
        3  |  8:55.25 |  4:02.34 |     40150    |    58333   
        4  | 12:57.59 |  6:19.32 |     58334    |    86790   
        5  | 19:17.16 |  5:04.06 |     86791    |   109596   
        6  | 24:21.22 |  4:35.65 |    109597    |   130286   
        7  | 28:57.12 |  3:44.74 |    130287    |   147160   
        8  | 32:42.11 |  6:07.28 |    147161    |   174713   


Range status and errors

Selected range

     Filename C:\Bad Company\2019 Swan Song Years 1974-1982 (6CD Box Set Rhino Records)\1975 Straight Shooter\Bad Company - Straight Shooter.wav

     Peak level 99.3 %
     Extraction speed 6.7 X
     Range quality 100.0 %
     Test CRC A76DD334
     Copy CRC A76DD334
     Copy OK

No errors occurred

 
AccurateRip summary
 
Track  1  cannot be verified as accurate (confidence 54)  [1665AF9E], AccurateRip returned [B668A1A3]  (AR v2)
Track  2  cannot be verified as accurate (confidence 54)  [20872F96], AccurateRip returned [B043C46A]  (AR v2)
Track  3  cannot be verified as accurate (confidence 54)  [560E0CFD], AccurateRip returned [D5615006]  (AR v2)
Track  4  cannot be verified as accurate (confidence 54)  [30F04B20], AccurateRip returned [633D27C6]  (AR v2)
Track  5  cannot be verified as accurate (confidence 54)  [FBD81703], AccurateRip returned [40A1B35E]  (AR v2)
Track  6  cannot be verified as accurate (confidence 54)  [691B41C6], AccurateRip returned [05AA685E]  (AR v2)
Track  7  cannot be verified as accurate (confidence 54)  [E43C7C28], AccurateRip returned [17310303]  (AR v2)
Track  8  cannot be verified as accurate (confidence 54)  [EE014D3A], AccurateRip returned [EE9714C8]  (AR v2)
 
No tracks could be verified as accurate
You may have a different pressing from the one(s) in the database

End of status report

---- CUETools DB Plugin V2.1.6

[CTDB TOCID: iYl5GMApc5JqHO.fDJRcI1RzjmI-] found
Submit result: already submitted
Track | CTDB Status
  1   | (155/155) Accurately ripped
  2   | (155/155) Accurately ripped
  3   | (155/155) Accurately ripped
  4   | (155/155) Accurately ripped
  5   | (155/155) Accurately ripped
  6   | (155/155) Accurately ripped
  7   | (155/155) Accurately ripped
  8   | (155/155) Accurately ripped


==== Log checksum D9024DB2EC42CE8F87BD2DD53A5F58E1995A18AD28AE79A1F824D9A23FC88D61 ====
->
=========================================================================================================================================================
->
1976 - Burnin' Sky
->
Exact Audio Copy V1.3 from 2. September 2016

EAC extraction logfile from 21. August 2019, 15:26

Bad Company / Burnin' Sky

Used drive  : PLEXTOR BD-R  PX-B950SA   Adapter: 1  ID: 1

Read mode               : Secure
Utilize accurate stream : Yes
Defeat audio cache      : Yes
Make use of C2 pointers : No

Read offset correction                      : 6
Overread into Lead-In and Lead-Out          : No
Fill up missing offset samples with silence : Yes
Delete leading and trailing silent blocks   : No
Null samples used in CRC calculations       : Yes
Used interface                              : Native Win32 interface for Win NT & 2000

Used output format : Internal WAV Routines
Sample format      : 44.100 Hz; 16 Bit; Stereo


TOC of the extracted CD

     Track |   Start  |  Length  | Start sector | End sector 
    ---------------------------------------------------------
        1  |  0:00.00 |  5:10.65 |         0    |    23314   
        2  |  5:10.65 |  4:07.51 |     23315    |    41890   
        3  |  9:18.41 |  3:24.15 |     41891    |    57205   
        4  | 12:42.56 |  4:19.66 |     57206    |    76696   
        5  | 17:02.47 |  1:20.69 |     76697    |    82765   
        6  | 18:23.41 |  3:28.42 |     82766    |    98407   
        7  | 21:52.08 |  2:37.37 |     98408    |   110219   
        8  | 24:29.45 |  3:25.56 |    110220    |   125650   
        9  | 27:55.26 |  2:31.06 |    125651    |   136981   
       10  | 30:26.32 |  3:53.24 |    136982    |   154480   
       11  | 34:19.56 |  3:45.21 |    154481    |   171376   
       12  | 38:05.02 |  7:13.02 |    171377    |   203853   


Range status and errors

Selected range

     Filename C:\Bad Company\2019 Swan Song Years 1974-1982 (6CD Box Set Rhino Records)\1976 Burnin' Sky\Bad Company - Burnin' Sky.wav

     Peak level 99.6 %
     Extraction speed 6.8 X
     Range quality 99.9 %
     Test CRC 431D365E
     Copy CRC 431D365E
     Copy OK

No errors occurred

 
AccurateRip summary
 
Track  1  cannot be verified as accurate (confidence 27)  [2E253FD7], AccurateRip returned [ED3B0098]  (AR v2)
Track  2  cannot be verified as accurate (confidence 27)  [E8BD15AB], AccurateRip returned [B159C637]  (AR v2)
Track  3  cannot be verified as accurate (confidence 27)  [4C01EF3F], AccurateRip returned [8B2AF97E]  (AR v2)
Track  4  cannot be verified as accurate (confidence 26)  [1C41EEE8], AccurateRip returned [2214EFE9]  (AR v2)
Track  5  cannot be verified as accurate (confidence 26)  [FB96C5BD], AccurateRip returned [59A3CEBA]  (AR v2)
Track  6  cannot be verified as accurate (confidence 26)  [5E945BE5], AccurateRip returned [045FC61A]  (AR v2)
Track  7  cannot be verified as accurate (confidence 27)  [3F0A23AF], AccurateRip returned [6D157AD2]  (AR v2)
Track  8  cannot be verified as accurate (confidence 26)  [2D02D437], AccurateRip returned [B98008A6]  (AR v2)
Track  9  cannot be verified as accurate (confidence 26)  [2853AF41], AccurateRip returned [34CCC003]  (AR v2)
Track 10  cannot be verified as accurate (confidence 27)  [4F484176], AccurateRip returned [A094362E]  (AR v2)
Track 11  cannot be verified as accurate (confidence 27)  [0FC909C2], AccurateRip returned [B152E984]  (AR v2)
Track 12  cannot be verified as accurate (confidence 26)  [4221A70D], AccurateRip returned [3E999295]  (AR v2)
 
No tracks could be verified as accurate
You may have a different pressing from the one(s) in the database

End of status report

---- CUETools DB Plugin V2.1.6

[CTDB TOCID: _X0XCRooDXLr9g65jyk6CAnOWYw-] found
Submit result: _X0XCRooDXLr9g65jyk6CAnOWYw- has been confirmed
Track | CTDB Status
  1   | (68/68) Accurately ripped
  2   | (68/68) Accurately ripped
  3   | (68/68) Accurately ripped
  4   | (68/68) Accurately ripped
  5   | (68/68) Accurately ripped
  6   | (68/68) Accurately ripped
  7   | (68/68) Accurately ripped
  8   | (68/68) Accurately ripped
  9   | (68/68) Accurately ripped
 10   | (68/68) Accurately ripped
 11   | (68/68) Accurately ripped
 12   | (68/68) Accurately ripped


==== Log checksum FFD53862CA7C325935E5CA95D5F3DE10BDA77574AA3F5EEED8A14A8DB62911B7 ====
->
=========================================================================================================================================================
->
1976 - Run With The Pack
->
Exact Audio Copy V1.3 from 2. September 2016

EAC extraction logfile from 21. August 2019, 15:55

Bad Company / Run With The Pack

Used drive  : PLEXTOR BD-R  PX-B950SA   Adapter: 1  ID: 1

Read mode               : Secure
Utilize accurate stream : Yes
Defeat audio cache      : Yes
Make use of C2 pointers : No

Read offset correction                      : 6
Overread into Lead-In and Lead-Out          : No
Fill up missing offset samples with silence : Yes
Delete leading and trailing silent blocks   : No
Null samples used in CRC calculations       : Yes
Used interface                              : Native Win32 interface for Win NT & 2000

Used output format : Internal WAV Routines
Sample format      : 44.100 Hz; 16 Bit; Stereo


TOC of the extracted CD

     Track |   Start  |  Length  | Start sector | End sector 
    ---------------------------------------------------------
        1  |  0:00.00 |  4:00.05 |         0    |    18004   
        2  |  4:00.05 |  3:38.61 |     18005    |    34415   
        3  |  7:38.66 |  3:17.26 |     34416    |    49216   
        4  | 10:56.17 |  3:08.67 |     49217    |    63383   
        5  | 14:05.09 |  5:25.35 |     63384    |    87793   
        6  | 19:30.44 |  5:04.71 |     87794    |   110664   
        7  | 24:35.40 |  2:41.67 |    110665    |   122806   
        8  | 27:17.32 |  2:53.42 |    122807    |   135823   
        9  | 30:10.74 |  3:31.69 |    135824    |   151717   
       10  | 33:42.68 |  2:56.29 |    151718    |   164946   


Range status and errors

Selected range

     Filename C:\Bad Company\2019 Swan Song Years 1974-1982 (6CD Box Set Rhino Records)\1976 Run With The Pack\Bad Company - Run With The Pack.wav

     Peak level 99.8 %
     Extraction speed 6.6 X
     Range quality 100.0 %
     Test CRC FFF3F315
     Copy CRC FFF3F315
     Copy OK

No errors occurred

 
AccurateRip summary
 
Track  1  cannot be verified as accurate (confidence 27)  [B27F9573], AccurateRip returned [56B5C43F]  (AR v2)
Track  2  cannot be verified as accurate (confidence 27)  [04D3C423], AccurateRip returned [06D0775B]  (AR v2)
Track  3  cannot be verified as accurate (confidence 27)  [0957A8C0], AccurateRip returned [DA0C7797]  (AR v2)
Track  4  cannot be verified as accurate (confidence 26)  [55838F1F], AccurateRip returned [A7152327]  (AR v2)
Track  5  cannot be verified as accurate (confidence 27)  [FE151B17], AccurateRip returned [1AFA7434]  (AR v2)
Track  6  cannot be verified as accurate (confidence 27)  [4A1BFB7A], AccurateRip returned [3E973075]  (AR v2)
Track  7  cannot be verified as accurate (confidence 27)  [732A4038], AccurateRip returned [C8B94830]  (AR v2)
Track  8  cannot be verified as accurate (confidence 27)  [0F4D33C0], AccurateRip returned [7FABE807]  (AR v2)
Track  9  cannot be verified as accurate (confidence 27)  [9E616C6C], AccurateRip returned [8A7D04B3]  (AR v2)
Track 10  cannot be verified as accurate (confidence 27)  [A8ACA060], AccurateRip returned [001740C5]  (AR v2)
 
No tracks could be verified as accurate
You may have a different pressing from the one(s) in the database

End of status report

---- CUETools DB Plugin V2.1.6

[CTDB TOCID: MoVenluZHuFP9mzNROqxs4ulh5g-] found
Submit result: MoVenluZHuFP9mzNROqxs4ulh5g- has been confirmed
Track | CTDB Status
  1   | (80/80) Accurately ripped
  2   | (80/80) Accurately ripped
  3   | (80/80) Accurately ripped
  4   | (80/80) Accurately ripped
  5   | (80/80) Accurately ripped
  6   | (80/80) Accurately ripped
  7   | (80/80) Accurately ripped
  8   | (80/80) Accurately ripped
  9   | (79/80) Accurately ripped
 10   | (80/80) Accurately ripped


==== Log checksum 02D67819D14069558CEB2538BAFDCCFC5416A82CBD89B82FD9F7EAE01E96DC4D ====
->
=========================================================================================================================================================
->
1979 - Desolation Angels
->
Exact Audio Copy V1.3 from 2. September 2016

EAC extraction logfile from 21. August 2019, 11:00

Bad Company / Desolation Angels

Used drive  : PLEXTOR BD-R  PX-B950SA   Adapter: 1  ID: 1

Read mode               : Secure
Utilize accurate stream : Yes
Defeat audio cache      : Yes
Make use of C2 pointers : No

Read offset correction                      : 6
Overread into Lead-In and Lead-Out          : No
Fill up missing offset samples with silence : Yes
Delete leading and trailing silent blocks   : No
Null samples used in CRC calculations       : Yes
Used interface                              : Native Win32 interface for Win NT & 2000

Used output format : Internal WAV Routines
Sample format      : 44.100 Hz; 16 Bit; Stereo


TOC of the extracted CD

     Track |   Start  |  Length  | Start sector | End sector 
    ---------------------------------------------------------
        1  |  0:00.00 |  3:19.36 |         0    |    14960   
        2  |  3:19.36 |  3:35.55 |     14961    |    31140   
        3  |  6:55.16 |  3:49.46 |     31141    |    48361   
        4  | 10:44.62 |  4:21.60 |     48362    |    67996   
        5  | 15:06.47 |  5:47.59 |     67997    |    94080   
        6  | 20:54.31 |  3:29.33 |     94081    |   109788   
        7  | 24:23.64 |  4:09.07 |    109789    |   128470   
        8  | 28:32.71 |  4:13.40 |    128471    |   147485   
        9  | 32:46.36 |  3:47.44 |    147486    |   164554   
       10  | 36:34.05 |  4:41.30 |    164555    |   185659   


Range status and errors

Selected range

     Filename C:\Bad Company\2019 Swan Song Years 1974-1982 (6CD Box Set Rhino Records)\1979 Desolation Angels\Bad Company - Desolation Angels.wav

     Peak level 100.0 %
     Extraction speed 3.1 X
     Range quality 100.0 %
     Test CRC 5F7CC518
     Copy CRC 5F7CC518
     Copy OK

No errors occurred

 
AccurateRip summary
 
Track  1  not present in database
Track  2  not present in database
Track  3  not present in database
Track  4  not present in database
Track  5  not present in database
Track  6  not present in database
Track  7  not present in database
Track  8  not present in database
Track  9  not present in database
Track 10  not present in database
 
None of the tracks are present in the AccurateRip database

End of status report

---- CUETools DB Plugin V2.1.6

[CTDB TOCID: 50oLOHyGNSbU1g0qnGuUNK137Ag-] found
Submit result: 50oLOHyGNSbU1g0qnGuUNK137Ag- has been confirmed
Track | CTDB Status
  1   | (9/9) Accurately ripped
  2   | (9/9) Accurately ripped
  3   | (9/9) Accurately ripped
  4   | (9/9) Accurately ripped
  5   | (9/9) Accurately ripped
  6   | (9/9) Accurately ripped
  7   | (9/9) Accurately ripped
  8   | (9/9) Accurately ripped
  9   | (9/9) Accurately ripped
 10   | (9/9) Accurately ripped


==== Log checksum 8A4138843A2B12B510ADE0E5550105FA88DE8D79A35DF56474B2A9F2F8FEF711 ====
->
=========================================================================================================================================================
->
1982 - Rough Diamonds
->
Exact Audio Copy V1.3 from 2. September 2016

EAC extraction logfile from 20. August 2019, 18:26

Bad Company / Rough Diamonds

Used drive  : PLEXTOR BD-R  PX-B950SA   Adapter: 1  ID: 1

Read mode               : Secure
Utilize accurate stream : Yes
Defeat audio cache      : Yes
Make use of C2 pointers : No

Read offset correction                      : 6
Overread into Lead-In and Lead-Out          : No
Fill up missing offset samples with silence : Yes
Delete leading and trailing silent blocks   : No
Null samples used in CRC calculations       : Yes
Used interface                              : Native Win32 interface for Win NT & 2000

Used output format : Internal WAV Routines
Sample format      : 44.100 Hz; 16 Bit; Stereo


TOC of the extracted CD

     Track |   Start  |  Length  | Start sector | End sector 
    ---------------------------------------------------------
        1  |  0:00.00 |  5:28.31 |         0    |    24630   
        2  |  5:28.31 |  4:11.25 |     24631    |    43480   
        3  |  9:39.56 |  3:48.40 |     43481    |    60620   
        4  | 13:28.21 |  3:28.23 |     60621    |    76243   
        5  | 16:56.44 |  3:40.65 |     76244    |    92808   
        6  | 20:37.34 |  2:14.53 |     92809    |   102911   
        7  | 22:52.12 |  3:02.05 |    102912    |   116566   
        8  | 25:54.17 |  3:51.14 |    116567    |   133905   
        9  | 29:45.31 |  4:13.72 |    133906    |   152952   
       10  | 33:59.28 |  4:48.20 |    152953    |   174572   


Range status and errors

Selected range

     Filename C:\Bad Company\2019 Swan Song Years 1974-1982 (6CD Box Set Rhino Records)\1982 Rough Diamonds\Bad Company - Rough Diamonds.wav

     Peak level 100.0 %
     Extraction speed 6.6 X
     Range quality 99.9 %
     Test CRC D1FC7CFE
     Copy CRC D1FC7CFE
     Copy OK

No errors occurred

 
AccurateRip summary
 
Track  1  not present in database
Track  2  not present in database
Track  3  not present in database
Track  4  not present in database
Track  5  not present in database
Track  6  not present in database
Track  7  not present in database
Track  8  not present in database
Track  9  not present in database
Track 10  not present in database
 
None of the tracks are present in the AccurateRip database

End of status report

---- CUETools DB Plugin V2.1.6

[CTDB TOCID: H.orU3jVP.8KBfs6dugC.sshePo-] found
Submit result: H.orU3jVP.8KBfs6dugC.sshePo- has been confirmed
Track | CTDB Status
  1   | (9/9) Accurately ripped
  2   | (9/9) Accurately ripped
  3   | (9/9) Accurately ripped
  4   | (9/9) Accurately ripped
  5   | (9/9) Accurately ripped
  6   | (9/9) Accurately ripped
  7   | (9/9) Accurately ripped
  8   | (9/9) Accurately ripped
  9   | (9/9) Accurately ripped
 10   | (9/9) Accurately ripped


==== Log checksum E4C5FBB2ABE575FF2478FEDEFD02DDB42E9F74E03F55885A27DE3BF036C92010 ====




Create a new paste based on this one


Comments: