[ create a new paste ] login | about

Link: http://codepad.org/eL70SPUu    [ raw code | fork ]

Plain Text, pasted on Aug 28:
foobar2000 1.3.17 / Dynamic Range Meter 1.1.1
log date: 2018-08-28 13:56:17

--------------------------------------------------------------------------------
Analyzed: Quincy Jones / Ultimate Collection
--------------------------------------------------------------------------------

DR         Peak         RMS     Duration Track
--------------------------------------------------------------------------------
DR11     -11.29 dB   -26.28 dB      3:37 01-If I Ever Lose This Heaven
DR12     -11.08 dB   -26.99 dB      6:01 02-Everything Must Change
DR13     -10.63 dB   -25.39 dB      3:59 03-Body Heat
DR13     -11.10 dB   -25.31 dB      3:17 04-Is It Love That We're Missin'
DR14     -10.04 dB   -27.05 dB      3:29 05-Mellow Madness
DR15      -8.64 dB   -25.79 dB      3:08 06-Stuff Like That
DR14      -9.10 dB   -25.51 dB      4:21 07-Ai No Corrida
DR15      -8.10 dB   -25.34 dB      4:10 08-Razzamatazz
DR12     -12.31 dB   -27.45 dB      4:34 09-Just Once
DR14     -10.72 dB   -27.11 dB      3:35 10-Betcha Wouldn't Hurt Me
DR12     -11.77 dB   -26.13 dB      4:19 11-One Hundred Ways
DR13     -10.64 dB   -25.93 dB      4:55 12-I'll Be Good To You
DR13     -11.24 dB   -27.41 dB      6:41 13-The Secret Garden (Sweet Seduction Suite)
DR13     -10.53 dB   -26.02 dB      4:53 14-Tomorrow (A Better You, Better Me)
DR14      -9.01 dB   -26.83 dB      6:13 15-You Put A Move On My Heart
DR13     -11.21 dB   -27.46 dB      4:15 16-I'm Yours
DR13     -10.92 dB   -26.88 dB      4:08 17-Everything
--------------------------------------------------------------------------------

Number of tracks:  17
Official DR value: DR13

Samplerate:        2822400 Hz / PCM Samplerate: 176400 Hz
Channels:          2
Bits per sample:   1
Bitrate:           5645 kbps
Codec:             DSD64
================================================================================




Create a new paste based on this one


Comments: