[ create a new paste ] login | about

Link: http://codepad.org/eP5mv92A    [ raw code | fork ]

Plain Text, pasted on Jan 9:
foobar2000 1.3.10 / Dynamic Range Meter 1.1.1
log date: 2017-01-09 13:12:08

--------------------------------------------------------------------------------
Analyzed: Randy Newman / The Randy Newman Songbook
--------------------------------------------------------------------------------

DR         Peak         RMS     Duration Track
--------------------------------------------------------------------------------
DR10      -0.07 dB   -13.36 dB      3:13 01-It's Lonely at the Top
DR12      -0.10 dB   -15.02 dB      3:25 02-God's Song (That's Why I Love Mankind)
DR10      -0.08 dB   -11.98 dB      2:58 03-Louisiana 1927
DR12      -0.10 dB   -14.30 dB      2:39 04-Let Me Go
DR9       -0.08 dB   -10.96 dB      3:08 05-Rednecks
DR15      -0.49 dB   -21.00 dB      0:59 06-Avalon
DR11      -0.07 dB   -14.52 dB      2:18 07-Living Without You
DR12      -0.07 dB   -15.62 dB      2:59 08-I Think It's Going to Rain Today
DR9       -0.07 dB   -10.78 dB      2:34 09-You Can Leave Your Hat On
DR8       -0.04 dB   -10.17 dB      2:20 10-It's Money That I Love
DR12      -0.09 dB   -14.42 dB      2:56 11-Marie
DR12      -2.51 dB   -17.98 dB      1:03 12-When She Loved Me
DR10      -0.07 dB   -12.26 dB      2:59 13-Sail Away
DR10      -0.07 dB   -13.46 dB      3:08 14-The World Isn't Fair
DR9       -0.05 dB   -11.32 dB      2:05 15-Political Science
DR8       -0.05 dB   -10.48 dB      3:27 16-The Great Nations of Europe
DR13      -0.08 dB   -17.72 dB      3:51 17-In Germany Before the War
DR12      -0.02 dB   -15.41 dB      1:26 18-Ragtime
--------------------------------------------------------------------------------

Number of tracks:  18
Official DR value: DR11

Samplerate:        44100 Hz
Channels:          2
Bits per sample:   16
Bitrate:           571 kbps
Codec:             FLAC
================================================================================




Create a new paste based on this one


Comments: