[ create a new paste ] login | about

Link: http://codepad.org/ePiiiiqz    [ raw code | fork ]

Plain Text, pasted on Apr 19:
foobar2000 1.3.14 / Dynamic Range Meter 1.1.1
log date: 2017-04-19 09:10:40

--------------------------------------------------------------------------------
Analyzed: Billy Joel / Streetlife Serenade
--------------------------------------------------------------------------------

DR         Peak         RMS     Duration Track
--------------------------------------------------------------------------------
DR10      -7.11 dB   -27.02 dB      5:25 01-Streetlife Serenader
DR10      -6.11 dB   -25.02 dB      3:47 02-Los Angelenos
DR10      -4.70 dB   -24.41 dB      3:53 03-The Great Suburban Showdown
DR11      -6.38 dB   -25.07 dB      3:04 04-Root Beer Rag
DR10      -7.09 dB   -25.47 dB      4:34 05-Roberta
DR10      -6.39 dB   -24.59 dB      3:42 06-The Entertainer
DR11      -6.70 dB   -27.18 dB      4:40 07-Last of the Big Time Spenders
DR10      -4.93 dB   -23.98 dB      3:34 08-Weekend Song
DR10     -12.22 dB   -31.70 dB      2:05 09-Souvenir
DR10      -6.56 dB   -24.48 dB      3:44 10-The Mexican Connection
--------------------------------------------------------------------------------

Number of tracks:  10
Official DR value: DR10

Samplerate:        2822400 Hz / PCM Samplerate: 88200 Hz
Channels:          5
Bits per sample:   1
Bitrate:           14112 kbps
Codec:             DST64
================================================================================

--------------------------------------------------------------------------------
Analyzed: Billy Joel / Streetlife Serenade
--------------------------------------------------------------------------------

DR         Peak         RMS     Duration Track
--------------------------------------------------------------------------------
DR13      -5.80 dB   -25.76 dB      5:19 01-Streetlife Serenader
DR15      -6.30 dB   -23.76 dB      3:42 02-Los Angelenos
DR14      -8.47 dB   -26.56 dB      3:46 03-The Great Suburban Showdown
DR15      -6.75 dB   -25.04 dB      3:03 04-Root Beer Rag
DR14      -4.60 dB   -22.50 dB      4:35 05-Roberta
DR13      -5.12 dB   -22.75 dB      3:41 06-The Entertainer
DR14      -6.32 dB   -26.49 dB      4:36 07-Last of the Big Time Spenders
DR14      -6.19 dB   -22.32 dB      3:31 08-Weekend Song
DR9      -14.07 dB   -28.56 dB      2:01 09-Souvenir
DR13     -10.11 dB   -27.39 dB      3:41 10-The Mexican Connection
--------------------------------------------------------------------------------

Number of tracks:  10
Official DR value: DR13

Samplerate:        2822400 Hz / PCM Samplerate: 88200 Hz
Channels:          2
Bits per sample:   1
Bitrate:           5645 kbps
Codec:             DSD64
================================================================================




Create a new paste based on this one


Comments: