[ create a new paste ] login | about

Link: http://codepad.org/eQG4sQmk    [ raw code | fork ]

Plain Text, pasted on May 8:
foobar2000 1.4.1 / Dynamic Range Meter 1.1.1
log date: 2019-05-07 19:27:16

--------------------------------------------------------------------------------
Analyzed: ? / ?
--------------------------------------------------------------------------------

DR         Peak         RMS     Duration Track
--------------------------------------------------------------------------------
DR15      -3.56 dB   -20.96 dB      4:35 01-ONE PHONE CALL / STREET SCENES
DR13      -5.26 dB   -20.99 dB      4:29 02-HUMAN NATURE
DR13      -4.33 dB   -19.70 dB      7:17 03-MD 1 / SOMETHING'S ON YOUR MIND / MD 2
DR13      -4.98 dB   -20.30 dB      4:54 04-MS. MORRISINE
DR13      -5.71 dB   -23.04 dB      0:40 05-KATIA PRELUDE
DR14       0.00 dB   -17.44 dB      7:36 06-KATIA
DR14      -1.06 dB   -18.19 dB      3:37 07-TIME AFTER TIME
DR17       0.00 dB   -18.19 dB      6:12 08-YOU'RE UNDER ARREST
DR12      -3.61 dB   -22.32 dB      3:27 09-Medley : JEAN PIERRE / YOU'RE UNDER ARREST / THEN THERE WERE NONE
--------------------------------------------------------------------------------

Number of tracks:  9
Official DR value: DR14

Samplerate:        2822400 Hz / PCM Samplerate: 176400 Hz
Channels:          2
Bits per sample:   1
Bitrate:           5645 kbps
Codec:             DSD64
================================================================================




Create a new paste based on this one


Comments: