[ create a new paste ] login | about

Link: http://codepad.org/eSNOboys    [ raw code | fork ]

Plain Text, pasted on Jan 5:
foobar2000 1.3.17 / Dynamic Range Meter 1.1.1
log date: 2018-01-05 16:32:17

--------------------------------------------------------------------------------
Analyzed: Nat "King" Cole / St. Louis Blues
--------------------------------------------------------------------------------

DR         Peak         RMS     Duration Track
--------------------------------------------------------------------------------
DR9       -4.07 dB   -26.72 dB      3:06 01-Overture, Love Theme, Hesitation Blues
DR7       -4.04 dB   -25.76 dB      1:50 02-Harlem Blues
DR8       -6.48 dB   -27.33 dB      2:35 03-Chantez Les Bas
DR8       -5.83 dB   -27.56 dB      3:13 04-Friendless Blues
DR8       -4.00 dB   -25.91 dB      2:38 05-Stay
DR7       -4.18 dB   -25.60 dB      2:41 06-Joe Turner's Blues
DR7       -5.06 dB   -25.61 dB      2:56 07-Beale Street Blues
DR8       -4.66 dB   -26.74 dB      2:54 08-Careless Love
DR7       -3.44 dB   -27.21 dB      2:13 09-Morning Star
DR8       -4.27 dB   -25.23 dB      3:05 10-Memphis Blues
DR8       -4.37 dB   -26.02 dB      3:14 11-Yellow Dog Blues
DR8       -4.42 dB   -25.27 dB      2:33 12-St. Louis Blues
--------------------------------------------------------------------------------

Number of tracks:  12
Official DR value: DR8

Samplerate:        2822400 Hz / PCM Samplerate: 176400 Hz
Channels:          5
Bits per sample:   1
Bitrate:           14112 kbps
Codec:             DST64
================================================================================

--------------------------------------------------------------------------------
Analyzed: Nat "King" Cole / St. Louis Blues
--------------------------------------------------------------------------------

DR         Peak         RMS     Duration Track
--------------------------------------------------------------------------------
DR13      -8.32 dB   -25.56 dB      3:08 01-Overture, Love Theme, Hesitation Blues
DR14      -6.75 dB   -24.24 dB      1:51 02-Harlem Blues
DR12      -8.94 dB   -25.41 dB      2:35 03-Chantez Les Bas
DR13      -8.65 dB   -25.61 dB      3:14 04-Friendless Blues
DR13      -6.43 dB   -23.70 dB      2:37 05-Stay
DR12      -7.89 dB   -23.69 dB      2:40 06-Joe Turner's Blues
DR13      -6.18 dB   -23.00 dB      2:55 07-Beale Street Blues
DR13      -6.64 dB   -24.07 dB      2:51 08-Careless Love
DR14      -7.50 dB   -25.76 dB      2:11 09-Morning Star
DR13      -5.02 dB   -22.29 dB      3:05 10-Memphis Blues
DR13      -7.31 dB   -24.38 dB      3:15 11-Yellow Dog Blues
DR12      -6.92 dB   -22.41 dB      2:27 12-St. Louis Blues
DR12      -8.45 dB   -25.84 dB      3:08 13-Overture, Love Theme, Hesitation Blues
DR15      -7.79 dB   -25.74 dB      1:51 14-Harlem Blues
DR13     -11.58 dB   -27.94 dB      2:36 15-Chantez Les Bas
DR14     -10.48 dB   -28.66 dB      3:15 16-Friendless Blues
DR13      -9.59 dB   -25.78 dB      2:38 17-Stay
DR13      -7.72 dB   -24.32 dB      2:41 18-Joe Turner's Blues
DR12     -10.03 dB   -24.90 dB      2:56 19-Beale Street Blues
DR14      -6.45 dB   -24.33 dB      2:46 20-Careless Love
DR13      -8.37 dB   -25.38 dB      2:14 21-Morning Star
DR14      -8.62 dB   -26.00 dB      3:05 22-Memphis Blues
DR13      -9.25 dB   -25.28 dB      3:15 23-Yellow Dog Blues
DR12      -8.63 dB   -23.56 dB      2:27 24-St. Louis Blues
--------------------------------------------------------------------------------

Number of tracks:  24
Official DR value: DR13

Samplerate:        2822400 Hz / PCM Samplerate: 176400 Hz
Channels:          2
Bits per sample:   1
Bitrate:           5645 kbps
Codec:             DST64
================================================================================




Create a new paste based on this one


Comments: