[ create a new paste ] login | about

Link: http://codepad.org/eSWPCfh2    [ raw code | fork ]

Plain Text, pasted on Mar 8:
foobar2000 1.4.1 / Dynamic Range Meter 1.1.1
log date: 2019-03-08 09:41:19

--------------------------------------------------------------------------------
Analyzed: Tom Petty And The Heartbreakers / The Best Of Everything: The Definitive Career Spanning Hits Collection 1976-2016 (1-14)
          Tom Petty / The Best Of Everything: The Definitive Career Spanning Hits Collection 1976-2016 (15-19)
--------------------------------------------------------------------------------

DR         Peak         RMS     Duration Track
--------------------------------------------------------------------------------
DR12      -1.86 dB   -16.08 dB      4:31 02-Mary Jane's Last Dance
DR13      -0.73 dB   -16.39 dB      2:41 07-Don't Do Me Like That
DR10      -3.54 dB   -14.70 dB      3:02 08-Listen To Her Heart
DR12      -1.95 dB   -17.78 dB      2:42 09-Breakdown
DR12      -2.43 dB   -16.49 dB      4:24 10-Walls (Circus)
DR10      -3.51 dB   -15.58 dB      3:54 11-The Waiting
DR13      -1.82 dB   -17.52 dB      5:04 12-Don't Come Around Here No More
DR12      -2.68 dB   -18.53 dB      4:42 13-Southern Accents
DR13      -2.58 dB   -20.98 dB      2:26 14-Angel Dream (No.2)
DR11      -3.25 dB   -16.39 dB      3:48 15-Dreamville
DR14      -0.22 dB   -15.29 dB      3:38 16-I Should Have Known It
DR12      -1.45 dB   -15.61 dB      3:20 17-Refugee
DR12      -1.11 dB   -15.52 dB      3:34 18-American Girl
DR10      -3.33 dB   -16.62 dB      5:25 19-The Best Of Everything
DR13      -2.50 dB   -17.54 dB      4:14 01-Free Fallin'
DR11      -2.87 dB   -15.99 dB      3:22 03-You Wreck Me
DR13      -1.06 dB   -16.36 dB      2:56 04-I Won't Back Down
DR11      -2.99 dB   -16.72 dB      3:46 05-Saving Grace
DR12      -3.42 dB   -17.42 dB      4:46 06-You Don't Know How It Feels
--------------------------------------------------------------------------------

Number of tracks:  19
Official DR value: DR12

Samplerate:        96000 Hz
Channels:          2
Bits per sample:   24
Bitrate:           3284 kbps
Codec:             FLAC
================================================================================

foobar2000 1.4.1 / Dynamic Range Meter 1.1.1
log date: 2019-03-08 09:42:08

--------------------------------------------------------------------------------
Analyzed: Mudcrutch / The Best Of Everything: The Definitive Career Spanning Hits Collection 1976-2016 (1-4)
          Stevie Nicks / The Best Of Everything: The Definitive Career Spanning Hits Collection 1976-2016 (5)
          Tom Petty And The Heartbreakers / The Best Of Everything: The Definitive Career Spanning Hits Collection 1976-2016 (6-15)
          Tom Petty / The Best Of Everything: The Definitive Career Spanning Hits Collection 1976-2016 (16-19)
--------------------------------------------------------------------------------

DR         Peak         RMS     Duration Track
--------------------------------------------------------------------------------
DR13      -0.20 dB   -15.32 dB      4:36 25-Scare Easy
DR14      -0.57 dB   -16.04 dB      3:19 30-Trailer
DR13      -0.20 dB   -14.72 dB      5:58 36-Hungry No More
DR12      -6.21 dB   -20.20 dB      4:14 37-I Forgive It All
DR12      -2.04 dB   -16.57 dB      4:03 29-Stop Draggin' My Heart Around
DR11      -3.43 dB   -16.40 dB      4:01 21-Learning To Fly
DR12      -1.68 dB   -16.62 dB      4:24 22-Here Comes My Girl
DR11      -2.99 dB   -15.59 dB      3:30 23-The Last DJ
DR12      -2.39 dB   -15.46 dB      2:23 24-I Need To Know
DR12      -1.68 dB   -17.39 dB      3:33 26-You Got Lucky
DR12      -2.82 dB   -16.17 dB      3:42 31-Into The Great Wide Open
DR11      -2.38 dB   -18.35 dB      5:01 32-Room At The Top
DR12      -1.72 dB   -15.39 dB      4:03 34-Jammin' Me
DR12      -1.53 dB   -15.58 dB      3:33 35-Even The Losers
DR11      -3.49 dB   -17.52 dB      3:52 38-For Real
DR12      -2.90 dB   -19.47 dB      3:11 20-Wildflowers
DR12      -1.14 dB   -15.17 dB      4:22 27-Runnin' Down A Dream
DR13      -0.65 dB   -15.56 dB      3:00 28-American Dream Plan B
DR12      -5.93 dB   -21.26 dB      3:26 33-Square One
--------------------------------------------------------------------------------

Number of tracks:  19
Official DR value: DR12

Samplerate:        96000 Hz
Channels:          2
Bits per sample:   24
Bitrate:           2533 kbps
Codec:             FLAC
================================================================================




Create a new paste based on this one


Comments: