[ create a new paste ] login | about

Link: http://codepad.org/eTi0ROGU    [ raw code | fork ]

Plain Text, pasted on May 8:
foobar2000 1.4.1 / Dynamic Range Meter 1.1.1
log date: 2019-05-07 21:59:16

--------------------------------------------------------------------------------
Analyzed: Miles Davis / ?
--------------------------------------------------------------------------------

DR         Peak         RMS     Duration Track
--------------------------------------------------------------------------------
DR11      -7.05 dB   -21.00 dB     27:23 01-Great Expectations
DR13      -6.25 dB   -22.02 dB     21:33 02-Ife
DR11      -6.50 dB   -21.62 dB     18:55 03-Recollections
DR9       -7.11 dB   -19.65 dB      5:55 04-Trevere
--------------------------------------------------------------------------------

Number of tracks:  4
Official DR value: DR11

Samplerate:        2822400 Hz / PCM Samplerate: 176400 Hz
Channels:          2
Bits per sample:   1
Bitrate:           5645 kbps
Codec:             DSD64
================================================================================

foobar2000 1.4.1 / Dynamic Range Meter 1.1.1
log date: 2019-05-07 22:01:11

--------------------------------------------------------------------------------
Analyzed: Miles Davis / ?
--------------------------------------------------------------------------------

DR         Peak         RMS     Duration Track
--------------------------------------------------------------------------------
DR12      -5.24 dB   -20.19 dB     28:26 01-Go Ahead John
DR13      -4.98 dB   -20.82 dB     21:20 02-Lonely Fire
DR13      -5.42 dB   -21.64 dB      9:10 03-The Little Blue Frog
DR8       -6.51 dB   -18.75 dB      9:40 04-Yaphet
--------------------------------------------------------------------------------

Number of tracks:  4
Official DR value: DR12

Samplerate:        2822400 Hz / PCM Samplerate: 176400 Hz
Channels:          2
Bits per sample:   1
Bitrate:           5645 kbps
Codec:             DSD64
================================================================================




Create a new paste based on this one


Comments: