[ create a new paste ] login | about

Link: http://codepad.org/eUiDZrJ7    [ raw code | fork ]

Plain Text, pasted on Jul 21:
foobar2000 1.3.17 / Dynamic Range Meter 1.1.1
log date: 2018-07-20 17:15:44

--------------------------------------------------------------------------------
Analyzed: EARTH, WIND & FIRE / THAT'S THE WAY OF THE WORLD: ALIVE IN '75
--------------------------------------------------------------------------------

DR         Peak         RMS     Duration Track
--------------------------------------------------------------------------------
DR9      -11.32 dB   -26.04 dB      0:56 01-Overture
DR13      -5.69 dB   -21.62 dB      5:34 02-Shining Star
DR12      -5.65 dB   -20.62 dB      5:39 03-Happy Feelin'
DR12      -5.66 dB   -20.52 dB      4:56 04-Yearnin' Learnin'
DR11      -5.67 dB   -20.52 dB      7:38 05-Sun Goddess
DR14     -11.32 dB   -33.69 dB      0:54 06-Interlude
DR11      -5.63 dB   -18.89 dB      3:01 07-Evil
DR12      -5.61 dB   -20.64 dB      7:00 08-Kalimba Story
DR12      -5.66 dB   -21.73 dB      9:42 09-Reasons
DR11      -5.63 dB   -18.97 dB      4:51 10-Mighty Mighty
DR11      -5.63 dB   -18.61 dB      8:29 11-That's The Way Of The World
--------------------------------------------------------------------------------

Number of tracks:  11
Official DR value: DR12

Samplerate:        2822400 Hz / PCM Samplerate: 176400 Hz
Channels:          6
Bits per sample:   1
Bitrate:           16934 kbps
Codec:             DST64
================================================================================

--------------------------------------------------------------------------------
Analyzed: EARTH, WIND & FIRE / THAT'S THE WAY OF THE WORLD: ALIVE IN '75
--------------------------------------------------------------------------------

DR         Peak         RMS     Duration Track
--------------------------------------------------------------------------------
DR9      -13.26 dB   -26.35 dB      0:56 01-Overture
DR11      -5.64 dB   -19.00 dB      5:34 02-Shining Star
DR10      -5.60 dB   -18.07 dB      5:37 03-Happy Feelin'
DR10      -5.59 dB   -18.16 dB      4:55 04-Yearnin' Learnin'
DR10      -5.60 dB   -18.24 dB      7:38 05-Sun Goddess
DR13     -12.52 dB   -29.55 dB      0:54 06-Interlude
DR11      -5.63 dB   -17.75 dB      3:01 07-Evil
DR11      -5.56 dB   -18.97 dB      6:58 08-Kalimba Story
DR11      -5.65 dB   -21.38 dB      9:40 09-Reasons
DR10      -5.64 dB   -17.68 dB      4:49 10-Mighty Mighty
DR11      -5.64 dB   -19.66 dB      8:27 11-That's The Way Of The World
--------------------------------------------------------------------------------

Number of tracks:  11
Official DR value: DR11

Samplerate:        2822400 Hz / PCM Samplerate: 176400 Hz
Channels:          2
Bits per sample:   1
Bitrate:           5645 kbps
Codec:             DST64
================================================================================




Create a new paste based on this one


Comments: