[ create a new paste ] login | about

Link: http://codepad.org/eUiFiHWp    [ raw code | fork ]

Plain Text, pasted on Mar 22:
Exact Audio Copy V1.0 beta 3 from 29. August 2011

EAC extraction logfile from 12. October 2013, 7:59

Stan Getz / Children of the World

Used drive  : ATAPI   DVD A  DH16ABSH   Adapter: 2  ID: 1

Read mode               : Secure
Utilize accurate stream : Yes
Defeat audio cache      : Yes
Make use of C2 pointers : No

Read offset correction                      : 6
Overread into Lead-In and Lead-Out          : No
Fill up missing offset samples with silence : Yes
Delete leading and trailing silent blocks   : No
Null samples used in CRC calculations       : Yes
Used interface                              : Native Win32 interface for Win NT & 2000
Gap handling                                : Appended to previous track

Used output format              : User Defined Encoder
Selected bitrate                : 128 kBit/s
Quality                         : High
Add ID3 tag                     : No
Command line compressor         : C:\Program Files (x86)\Exact Audio Copy\FLAC\FLAC.EXE
Additional command line options : -8 -V -T "ARTIST=%artist%" -T "TITLE=%title%" -T "ALBUM=%albumtitle%" -T "DATE=%year%" -T "TRACKNUMBER=%tracknr%" -T "TOTALTRACKS=%numtracks%" -T "GENRE=%genre%" -T "ALBUMARTIST=%albumartist%" -T "ALBUM ARTIST=%albumartist%" -T "COMMENT=EAC Secure Mode, Test & Copy, AccurateRip, FLAC -8" %source%


TOC of the extracted CD

     Track |   Start  |  Length  | Start sector | End sector 
    ---------------------------------------------------------
        1  |  0:00.14 |  4:30.63 |        14    |    20326   
        2  |  4:31.02 |  5:34.47 |     20327    |    45423   
        3  | 10:05.49 |  5:27.03 |     45424    |    69951   
        4  | 15:32.52 |  5:13.69 |     69952    |    93495   
        5  | 20:46.46 |  3:21.62 |     93496    |   108632   
        6  | 24:08.33 |  2:38.20 |    108633    |   120502   
        7  | 26:46.53 |  6:44.74 |    120503    |   150876   
        8  | 33:31.52 |  8:20.25 |    150877    |   188401   
        9  | 41:52.02 |  5:45.39 |    188402    |   214315   
       10  | 47:37.41 |  6:49.33 |    214316    |   245023   


Track  1

     Filename G:\Uploads\Ex\Stan Getz - The Complete Columbia Albums Collection (1972-79) [FLAC] {9xCDs}\Disc 6 - Children of the World\01 - Don't Cry For Me Argentina.wav

     Pre-gap length  0:00:02.14

     Peak level 96.2 %
     Extraction speed 3.3 X
     Track quality 100.0 %
     Test CRC BE7C6944
     Copy CRC BE7C6944
     Cannot be verified as accurate (confidence 6)  [3F936675], AccurateRip returned [98923369]  (AR v2)
     Copy OK

Track  2

     Filename G:\Uploads\Ex\Stan Getz - The Complete Columbia Albums Collection (1972-79) [FLAC] {9xCDs}\Disc 6 - Children of the World\02 - Children Of The World.wav

     Pre-gap length  0:00:01.05

     Peak level 97.8 %
     Extraction speed 3.3 X
     Track quality 99.9 %
     Test CRC 45E2D2F0
     Copy CRC 45E2D2F0
     Cannot be verified as accurate (confidence 6)  [32FC0C6A], AccurateRip returned [B38CEC0A]  (AR v2)
     Copy OK

Track  3

     Filename G:\Uploads\Ex\Stan Getz - The Complete Columbia Albums Collection (1972-79) [FLAC] {9xCDs}\Disc 6 - Children of the World\03 - Livin' It Up.wav

     Pre-gap length  0:00:01.30

     Peak level 97.6 %
     Extraction speed 4.3 X
     Track quality 100.0 %
     Test CRC 231BA1D6
     Copy CRC 231BA1D6
     Cannot be verified as accurate (confidence 6)  [3FEB75FD], AccurateRip returned [2F202A9A]  (AR v2)
     Copy OK

Track  4

     Filename G:\Uploads\Ex\Stan Getz - The Complete Columbia Albums Collection (1972-79) [FLAC] {9xCDs}\Disc 6 - Children of the World\04 - Street Tattoo.wav

     Pre-gap length  0:00:02.68

     Peak level 90.1 %
     Extraction speed 4.7 X
     Track quality 100.0 %
     Test CRC AE5FD60B
     Copy CRC AE5FD60B
     Cannot be verified as accurate (confidence 6)  [A9219F77], AccurateRip returned [41FF667C]  (AR v2)
     Copy OK

Track  5

     Filename G:\Uploads\Ex\Stan Getz - The Complete Columbia Albums Collection (1972-79) [FLAC] {9xCDs}\Disc 6 - Children of the World\05 - Hopscotch.wav

     Pre-gap length  0:00:00.34

     Peak level 97.6 %
     Extraction speed 3.6 X
     Track quality 99.9 %
     Test CRC 1B1C1110
     Copy CRC 1B1C1110
     Cannot be verified as accurate (confidence 6)  [1A7A476E], AccurateRip returned [71DA4595]  (AR v2)
     Copy OK

Track  6

     Filename G:\Uploads\Ex\Stan Getz - The Complete Columbia Albums Collection (1972-79) [FLAC] {9xCDs}\Disc 6 - Children of the World\06 - On Rainy Afternoons.wav

     Pre-gap length  0:00:01.59

     Peak level 56.6 %
     Extraction speed 4.7 X
     Track quality 100.0 %
     Test CRC C4658664
     Copy CRC C4658664
     Cannot be verified as accurate (confidence 6)  [58717A67], AccurateRip returned [22B95243]  (AR v2)
     Copy OK

Track  7

     Filename G:\Uploads\Ex\Stan Getz - The Complete Columbia Albums Collection (1972-79) [FLAC] {9xCDs}\Disc 6 - Children of the World\07 - You, Me And The Spring.wav

     Pre-gap length  0:00:01.07

     Peak level 97.6 %
     Extraction speed 5.7 X
     Track quality 100.0 %
     Test CRC 56CD9471
     Copy CRC 56CD9471
     Cannot be verified as accurate (confidence 6)  [6A5B4203], AccurateRip returned [791DF86D]  (AR v2)
     Copy OK

Track  8

     Filename G:\Uploads\Ex\Stan Getz - The Complete Columbia Albums Collection (1972-79) [FLAC] {9xCDs}\Disc 6 - Children of the World\08 - Summer Poem.wav

     Pre-gap length  0:00:02.32

     Peak level 92.9 %
     Extraction speed 5.5 X
     Track quality 99.9 %
     Test CRC 9BC26D38
     Copy CRC 9BC26D38
     Cannot be verified as accurate (confidence 6)  [2AD6AFB9], AccurateRip returned [DAE71D4D]  (AR v2)
     Copy OK

Track  9

     Filename G:\Uploads\Ex\Stan Getz - The Complete Columbia Albums Collection (1972-79) [FLAC] {9xCDs}\Disc 6 - Children of the World\09 - The Dreamer.wav

     Pre-gap length  0:00:01.11

     Peak level 83.0 %
     Extraction speed 6.4 X
     Track quality 100.0 %
     Test CRC 2050CAFC
     Copy CRC 2050CAFC
     Cannot be verified as accurate (confidence 6)  [04D94E07], AccurateRip returned [454465FC]  (AR v2)
     Copy OK

Track 10

     Filename G:\Uploads\Ex\Stan Getz - The Complete Columbia Albums Collection (1972-79) [FLAC] {9xCDs}\Disc 6 - Children of the World\10 - Around The Day In Eighty Worlds.wav

     Pre-gap length  0:00:01.18

     Peak level 97.6 %
     Extraction speed 6.8 X
     Track quality 100.0 %
     Test CRC 09349B48
     Copy CRC 09349B48
     Cannot be verified as accurate (confidence 6)  [71648A64], AccurateRip returned [6CBDDC9D]  (AR v2)
     Copy OK


No tracks could be verified as accurate
You may have a different pressing from the one(s) in the database

No errors occurred

End of status report

==== Log checksum EEFA06309C0386EC7901D744CB8590CEE0479A36153B90C496E32B7BF03BC70C ====



Create a new paste based on this one


Comments: