[ create a new paste ] login | about

Link: http://codepad.org/ecZykfFk    [ raw code | fork ]

Plain Text, pasted on Dec 11:
foobar2000 1.5 / Dynamic Range Meter 1.1.1
log date: 2019-12-11 19:31:35

--------------------------------------------------------------------------------
Analyzed: Herbie Hancock / Gershwin's World
--------------------------------------------------------------------------------

DR         Peak         RMS     Duration Track
--------------------------------------------------------------------------------
DR15      -6.57 dB   -26.10 dB      0:53 01-Overture (Fascinating Rhythm)
DR14      -3.49 dB   -24.67 dB      4:45 02-It Ain't Necessarily So
DR16      -3.37 dB   -27.82 dB      5:56 03-The Man I Love
DR13      -7.98 dB   -26.09 dB      3:56 04-Here Come De Honey Man
DR17      -3.92 dB   -24.85 dB      5:49 05-St. Louis Blues
DR14      -9.01 dB   -30.40 dB     11:02 06-Gershwin: Lullaby
DR11      -8.29 dB   -26.82 dB      3:29 07-Blueberry Rhyme
DR14      -6.59 dB   -27.24 dB      1:21 08-It Ain't Necessarily So (Interlude)
DR13      -4.43 dB   -24.13 dB      4:42 09-Cotton Tail
DR13      -7.67 dB   -27.08 dB      4:39 10-Summertime
DR13      -8.47 dB   -28.55 dB      2:00 11-My Man's Gone Now
DR15      -4.85 dB   -26.36 dB      4:42 12-Gershwin: Prelude in C# Minor
DR13      -8.61 dB   -29.81 dB      9:09 13-Ravel: Concerto For Piano And Orchestra in G, 2nd Mvt.
DR12      -8.75 dB   -29.58 dB      4:39 14-Embraceable You
--------------------------------------------------------------------------------

Number of tracks:  14
Official DR value: DR14

Samplerate:        2822400 Hz / PCM Samplerate: 44100 Hz
Channels:          6
Bits per sample:   1
Bitrate:           16934 kbps
Codec:             DST64
================================================================================

--------------------------------------------------------------------------------
Analyzed: Herbie Hancock / Gershwin's World
--------------------------------------------------------------------------------

DR         Peak         RMS     Duration Track
--------------------------------------------------------------------------------
DR11      -6.20 dB   -20.04 dB      0:56 01-Overture (Fascinating Rhythm)
DR11      -6.50 dB   -20.89 dB      4:47 02-It Ain't Necessarily So
DR11      -6.29 dB   -20.47 dB      5:57 03-The Man I Love
DR10      -7.10 dB   -20.63 dB      3:59 04-Here Come De Honey Man
DR10      -6.23 dB   -18.98 dB      5:51 05-St. Louis Blues
DR14      -7.19 dB   -27.04 dB     11:03 06-Gershwin: Lullaby
DR13      -6.53 dB   -22.46 dB      3:31 07-Blueberry Rhyme
DR15     -11.97 dB   -30.00 dB      1:25 08-It Ain't Necessarily So (Interlude)
DR10      -6.76 dB   -19.12 dB      4:44 09-Cotton Tail
DR13      -7.55 dB   -23.41 dB      4:38 10-Summertime
DR11      -7.80 dB   -23.95 dB      1:56 11-My Man's Gone Now
DR11      -6.78 dB   -21.87 dB      4:46 12-Gershwin: Prelude in C# Minor
DR12      -6.99 dB   -24.02 dB      9:12 13-Ravel: Concerto For Piano And Orchestra in G, 2nd Mvt.
DR14      -7.30 dB   -27.04 dB      4:39 14-Embraceable You
--------------------------------------------------------------------------------

Number of tracks:  14
Official DR value: DR12

Samplerate:        2822400 Hz / PCM Samplerate: 44100 Hz
Channels:          2
Bits per sample:   1
Bitrate:           5645 kbps
Codec:             DST64
================================================================================




Create a new paste based on this one


Comments: