[ create a new paste ] login | about

Link: http://codepad.org/eetESqOJ    [ raw code | fork ]

Plain Text, pasted on Dec 14:
Exact Audio Copy V0.99 prebeta 5 from 4. May 2009

EAC extraction logfile from 24. June 2015, 18:43

ELVIS PRESLEY / The Complete 1954-1962 USA Singles (CD2)

Used drive  : ATAPI   iHAS122   C   Adapter: 1  ID: 1

Read mode               : Secure
Utilize accurate stream : Yes
Defeat audio cache      : Yes
Make use of C2 pointers : No

Read offset correction                      : 6
Overread into Lead-In and Lead-Out          : No
Fill up missing offset samples with silence : Yes
Delete leading and trailing silent blocks   : No
Null samples used in CRC calculations       : Yes
Used interface                              : Native Win32 interface for Win NT & 2000

Used output format : Internal WAV Routines
Sample format      : 44.100 Hz; 16 Bit; Stereo


TOC of the extracted CD

     Track |   Start  |  Length  | Start sector | End sector 
    ---------------------------------------------------------
        1  |  0:00.00 |  2:34.55 |         0    |    11604   
        2  |  2:34.55 |  2:34.68 |     11605    |    23222   
        3  |  5:09.48 |  2:12.02 |     23223    |    33124   
        4  |  7:21.50 |  2:09.70 |     33125    |    42869   
        5  |  9:31.45 |  2:31.66 |     42870    |    54260   
        6  | 12:03.36 |  2:47.15 |     54261    |    66800   
        7  | 14:50.51 |  2:16.28 |     66801    |    77028   
        8  | 17:07.04 |  2:55.44 |     77029    |    90197   
        9  | 20:02.48 |  2:34.29 |     90198    |   101776   
       10  | 22:37.02 |  1:59.23 |    101777    |   110724   
       11  | 24:36.25 |  3:25.35 |    110725    |   126134   
       12  | 28:01.60 |  1:49.24 |    126135    |   134333   
       13  | 29:51.09 |  2:16.49 |    134334    |   144582   
       14  | 32:07.58 |  2:27.46 |    144583    |   155653   
       15  | 34:35.29 |  2:14.12 |    155654    |   165715   
       16  | 36:49.41 |  2:50.28 |    165716    |   178493   
       17  | 39:39.69 |  1:53.57 |    178494    |   187025   
       18  | 41:33.51 |  2:16.06 |    187026    |   197231   
       19  | 43:49.57 |  1:56.63 |    197232    |   205994   
       20  | 45:46.45 |  1:55.42 |    205995    |   214661   
       21  | 47:42.12 |  2:07.04 |    214662    |   224190   
       22  | 49:49.16 |  2:32.38 |    224191    |   235628   
       23  | 52:21.54 |  1:50.49 |    235629    |   243927   
       24  | 54:12.28 |  2:05.07 |    243928    |   253309   
       25  | 56:17.35 |  2:29.04 |    253310    |   264488   


Range status and errors

Selected range

     Filename C:\Users\London\Desktop\ELVIS PRESLEY - The Complete 1954-1962 USA Singles (CD2).wav

     Peak level 99.9 %
     Range quality 99.9 %
     Test CRC DD9213A2
     Copy CRC DD9213A2
     Copy OK

No errors occurred

 
AccurateRip summary
 
Track  1  not present in database
Track  2  not present in database
Track  3  not present in database
Track  4  not present in database
Track  5  not present in database
Track  6  not present in database
Track  7  not present in database
Track  8  not present in database
Track  9  not present in database
Track 10  not present in database
Track 11  not present in database
Track 12  not present in database
Track 13  not present in database
Track 14  not present in database
Track 15  not present in database
Track 16  not present in database
Track 17  not present in database
Track 18  not present in database
Track 19  not present in database
Track 20  not present in database
Track 21  not present in database
Track 22  not present in database
Track 23  not present in database
Track 24  not present in database
Track 25  not present in database
 
None of the tracks are present in the AccurateRip database

End of status report



Create a new paste based on this one


Comments: