[ create a new paste ] login | about

Link: http://codepad.org/eg1kJCRS    [ raw code | fork ]

Plain Text, pasted on Aug 10:
Exact Audio Copy V1.3 from 2. September 2016

EAC extraction logfile from 24. August 2018, 15:12

Rosemary Clooney and Duke Ellington / Blue Rose (MFSL MFCD 850)

Used drive  : PIONEER BD-RW   BDR-208D   Adapter: 1  ID: 0

Read mode               : Secure
Utilize accurate stream : Yes
Defeat audio cache      : Yes
Make use of C2 pointers : No

Read offset correction                      : 667
Overread into Lead-In and Lead-Out          : No
Fill up missing offset samples with silence : Yes
Delete leading and trailing silent blocks   : No
Null samples used in CRC calculations       : Yes
Used interface                              : Native Win32 interface for Win NT & 2000
Gap handling                                : Appended to previous track

Used output format              : User Defined Encoder
Selected bitrate                : 1024 kBit/s
Quality                         : High
Add ID3 tag                     : No
Command line compressor         : C:\Program Files (x86)\Exact Audio Copy\Flac\flac.exe
Additional command line options : -8 -e -V -T "ARTIST=%artist%" -T "TITLE=%title%" -T "ALBUM=%albumtitle%" -T "DATE=%year%" -T "TRACKNUMBER=%tracknr%" -T "GENRE=%genre%" -T "PERFORMER=%albuminterpret%" -T "COMPOSER=%composer%" %haslyrics%--tag-from-file=LYRICS="%lyricsfile%"%haslyrics% -T "ALBUMARTIST=%albumartist%" -T "DISCNUMBER=%cdnumber%" -T "TOTALDISCS=%totalcds%" -T "TOTALTRACKS=%numtracks%" -T "COMMENT=%comment%" %source% -o %dest%


TOC of the extracted CD

     Track |   Start  |  Length  | Start sector | End sector 
    ---------------------------------------------------------
        1  |  0:00.33 |  3:53.37 |        33    |    17544   
        2  |  3:53.70 |  3:01.38 |     17545    |    31157   
        3  |  6:55.33 |  2:32.00 |     31158    |    42557   
        4  |  9:27.33 |  4:36.00 |     42558    |    63257   
        5  | 14:03.33 |  2:41.37 |     63258    |    75369   
        6  | 16:44.70 |  2:51.00 |     75370    |    88194   
        7  | 19:35.70 |  4:14.13 |     88195    |   107257   
        8  | 23:50.08 |  2:25.37 |    107258    |   118169   
        9  | 26:15.45 |  3:14.00 |    118170    |   132719   
       10  | 29:29.45 |  3:10.55 |    132720    |   147024   
       11  | 32:40.25 |  6:28.08 |    147025    |   176132   


Track  1

     Filename K:\Musique\Blue\01 - Hey Baby.wav

     Pre-gap length  0:00:02.44

     Peak level 71.2 %
     Extraction speed 4.6 X
     Track quality 100.0 %
     Test CRC CFEA976A
     Copy CRC CFEA976A
     Accurately ripped (confidence 9)  [21BBAC22]  (AR v2)
     Copy OK

Track  2

     Filename K:\Musique\Blue\02 - Sophisticated Lady.wav

     Pre-gap length  0:00:03.49

     Peak level 66.1 %
     Extraction speed 4.8 X
     Track quality 100.0 %
     Test CRC 71150776
     Copy CRC 71150776
     Accurately ripped (confidence 9)  [C64E5197]  (AR v2)
     Copy OK

Track  3

     Filename K:\Musique\Blue\03 - Me and You.wav

     Pre-gap length  0:00:04.00

     Peak level 73.8 %
     Extraction speed 4.9 X
     Track quality 100.0 %
     Test CRC B9D4581C
     Copy CRC B9D4581C
     Accurately ripped (confidence 9)  [C36B890F]  (AR v2)
     Copy OK

Track  4

     Filename K:\Musique\Blue\04 - Passion Flower.wav

     Pre-gap length  0:00:04.17

     Peak level 91.3 %
     Extraction speed 5.7 X
     Track quality 100.0 %
     Test CRC 4DBF1923
     Copy CRC 4DBF1923
     Accurately ripped (confidence 9)  [CBECF4C3]  (AR v2)
     Copy OK

Track  5

     Filename K:\Musique\Blue\05 - I Let a Song Go Out of My Heart.wav

     Pre-gap length  0:00:03.93

     Peak level 76.9 %
     Extraction speed 5.6 X
     Track quality 100.0 %
     Test CRC 17269A47
     Copy CRC 17269A47
     Accurately ripped (confidence 9)  [F436B4FC]  (AR v2)
     Copy OK

Track  6

     Filename K:\Musique\Blue\06 - It Don't Mean a Thing.wav

     Pre-gap length  0:00:04.00

     Peak level 85.8 %
     Extraction speed 5.0 X
     Track quality 99.9 %
     Test CRC B6982AB5
     Copy CRC B6982AB5
     Accurately ripped (confidence 9)  [7715848A]  (AR v2)
     Copy OK

Track  7

     Filename K:\Musique\Blue\07 - Grievin'.wav

     Pre-gap length  0:00:02.66

     Peak level 75.8 %
     Extraction speed 6.6 X
     Track quality 100.0 %
     Test CRC D6E710D6
     Copy CRC D6E710D6
     Accurately ripped (confidence 9)  [65BF7BA0]  (AR v2)
     Copy OK

Track  8

     Filename K:\Musique\Blue\08 - Blue Rose.wav

     Pre-gap length  0:00:04.00

     Peak level 82.4 %
     Extraction speed 6.3 X
     Track quality 100.0 %
     Test CRC 334CD337
     Copy CRC 334CD337
     Accurately ripped (confidence 9)  [7C5C08E8]  (AR v2)
     Copy OK

Track  9

     Filename K:\Musique\Blue\09 - I'm Checking Out - Goombye.wav

     Pre-gap length  0:00:04.16

     Peak level 91.9 %
     Extraction speed 6.7 X
     Track quality 100.0 %
     Test CRC 2189B801
     Copy CRC 2189B801
     Accurately ripped (confidence 9)  [31357C69]  (AR v2)
     Copy OK

Track 10

     Filename K:\Musique\Blue\10 - I Got It Bad.wav

     Pre-gap length  0:00:04.16

     Peak level 71.1 %
     Extraction speed 7.0 X
     Track quality 100.0 %
     Test CRC 8D0D13A1
     Copy CRC 8D0D13A1
     Accurately ripped (confidence 9)  [02E81817]  (AR v2)
     Copy OK

Track 11

     Filename K:\Musique\Blue\11 - Mood Indigo.wav

     Pre-gap length  0:00:03.89

     Peak level 91.0 %
     Extraction speed 7.3 X
     Track quality 99.9 %
     Test CRC 8624C435
     Copy CRC 8624C435
     Accurately ripped (confidence 8)  [CEA23D8E]  (AR v2)
     Copy OK


All tracks accurately ripped

No errors occurred

End of status report

---- CUETools DB Plugin V2.1.6

[CTDB TOCID: _TcEAJkcaJaXVAeHHoLGhwzdB9A-] found
Submit result: _TcEAJkcaJaXVAeHHoLGhwzdB9A- has been confirmed
Track | CTDB Status
  1   | (7/7) Accurately ripped
  2   | (7/7) Accurately ripped
  3   | (7/7) Accurately ripped
  4   | (7/7) Accurately ripped
  5   | (7/7) Accurately ripped
  6   | (7/7) Accurately ripped
  7   | (7/7) Accurately ripped
  8   | (7/7) Accurately ripped
  9   | (7/7) Accurately ripped
 10   | (7/7) Accurately ripped
 11   | (6/7) Accurately ripped


==== Log checksum 146794130EAAAEA7703FD1D19446E685377C38E79EA462179FCC70D10B110983 ====



Create a new paste based on this one


Comments: