[ create a new paste ] login | about

Link: http://codepad.org/egOCcoyP    [ raw code | fork ]

Plain Text, pasted on Jun 6:
foobar2000 1.3.17 / Dynamic Range Meter 1.1.1
log date: 2018-06-06 09:40:57

--------------------------------------------------------------------------------
Analyzed: Mike Marshall / Gator Strut
--------------------------------------------------------------------------------

DR         Peak         RMS     Duration Track
--------------------------------------------------------------------------------
DR16      -3.53 dB   -21.43 dB      3:29 01-Dance of the Planktons
DR14      -3.80 dB   -22.44 dB      4:41 02-We Three
DR14      -3.65 dB   -22.19 dB      6:05 03-Gator Strut
DR12      -4.06 dB   -18.69 dB      3:20 04-Chief Sitting in the Rain
DR14      -4.49 dB   -22.17 dB      1:48 05-"Assez Vif - tres Rythme" from Ravel's String Quartet in F
DR13      -4.31 dB   -20.51 dB      2:38 06-Giant Hornpipe
DR15      -4.21 dB   -23.24 dB      2:52 07-Because
DR14      -4.01 dB   -20.65 dB      3:40 08-Scotch & Swing
DR13      -4.29 dB   -20.01 dB      4:06 09-Bach's Partita #3 in E for Solo Violin
DR16      -4.01 dB   -22.85 dB      3:51 10-Ybor City
DR16      -4.24 dB   -23.84 dB      5:00 11-'Round Midnight
DR15      -4.03 dB   -21.94 dB      7:35 12-Gator's Dream
DR15      -3.53 dB   -21.95 dB      3:58 13-Wake Up
DR14      -5.87 dB   -25.63 dB      1:02 14-We Three (reprise)
--------------------------------------------------------------------------------

Number of tracks:  14
Official DR value: DR14

Samplerate:        2822400 Hz / PCM Samplerate: 176400 Hz
Channels:          2
Bits per sample:   1
Bitrate:           5645 kbps
Codec:             DSD64
================================================================================




Create a new paste based on this one


Comments: