[ create a new paste ] login | about

Link: http://codepad.org/ejLl5leq    [ raw code | fork ]

Plain Text, pasted on Nov 22:
[CUETools log; Date: 11/22/2018 8:28:38 AM; Version: 2.1.5]
[CTDB TOCID: 5QDZ3EE9k_4Iotoaa4ecWFZ9F3Q-] found.
Track | CTDB Status
  1   | (509/510) Accurately ripped
  2   | (509/510) Accurately ripped
  3   | (509/510) Accurately ripped
  4   | (508/510) Accurately ripped
  5   | (508/510) Accurately ripped
  6   | (509/510) Accurately ripped
  7   | (509/510) Accurately ripped
  8   | (509/510) Accurately ripped
  9   | (509/510) Accurately ripped
 10   | (509/510) Accurately ripped
 11   | (509/510) Accurately ripped
 12   | (509/510) Accurately ripped
 13   | (507/510) Accurately ripped
 14   | (509/510) Accurately ripped
 15   | (509/510) Accurately ripped
 16   | (509/510) Accurately ripped
 17   | (508/510) Accurately ripped
[AccurateRip ID: 001d8363-01734fb8-e40ae411] found.
Track   [  CRC   |   V2   ] Status
 01     [a2c2773e|39a78f87] (00+23/25) Accurately ripped
 02     [850770ec|337db703] (00+23/25) Accurately ripped
 03     [08b996b8|a03bf96b] (00+23/25) Accurately ripped
 04     [706746e1|37970b23] (00+23/25) Accurately ripped
 05     [0ad5746d|9e1ffdbc] (00+23/25) Accurately ripped
 06     [4e4124b9|69f3beea] (00+23/25) Accurately ripped
 07     [005394f3|2c1a2c40] (00+23/25) Accurately ripped
 08     [ba04f22f|d88135a4] (00+23/25) Accurately ripped
 09     [c53a075e|5e69eb61] (00+23/25) Accurately ripped
 10     [e458be38|52f94df4] (00+23/25) Accurately ripped
 11     [6e9893a1|66752771] (00+23/25) Accurately ripped
 12     [d6ff349c|a6133dbd] (00+23/25) Accurately ripped
 13     [79e93d30|a2891ab3] (00+23/25) Accurately ripped
 14     [98b387a7|56d4fe3e] (00+23/25) Accurately ripped
 15     [956f2228|9377b486] (00+23/25) Accurately ripped
 16     [782ba584|91c6f6a1] (00+23/25) Accurately ripped
 17     [461e078e|ef987729] (00+23/25) Accurately ripped
Offsetted by 12:
 01     [78f1b59b] (02/25) Accurately ripped
 02     [8d3c0a78] (02/25) Accurately ripped
 03     [70094241] (02/25) Accurately ripped
 04     [a73ebf46] (02/25) Accurately ripped
 05     [c2c99c0d] (02/25) Accurately ripped
 06     [202df0a2] (02/25) Accurately ripped
 07     [31e9aa97] (02/25) Accurately ripped
 08     [5fb9d72c] (02/25) Accurately ripped
 09     [9c30c751] (02/25) Accurately ripped
 10     [f97f952d] (02/25) Accurately ripped
 11     [ff708c66] (02/25) Accurately ripped
 12     [e90fa064] (02/25) Accurately ripped
 13     [a965251a] (02/25) Accurately ripped
 14     [4a2adae6] (02/25) Accurately ripped
 15     [c75ab93e] (02/25) Accurately ripped
 16     [5fa9be38] (02/25) Accurately ripped
 17     [4fd47b89] (02/25) Accurately ripped

Track Peak [ CRC32  ] [W/O NULL] [  LOG   ]
 --   98.6 [A1356453] [769DE761]   CRC32   
 01   96.9 [9C523A04] [2C2076D9]           
 02   94.8 [59003FEA] [7F8E6DE7]           
 03   95.0 [609C587F] [B3810CA1]           
 04   95.5 [DC8BB33F] [E9E17DEC]           
 05   98.6 [5F18B977] [021B900A]           
 06   95.4 [ADBDD94A] [3FF077A7]           
 07   95.1 [1EAB90F3] [D7C56358]           
 08   94.9 [AC392C38] [4E53EEC5]           
 09   96.9 [FBC62878] [93D0C6B0]           
 10   95.8 [E282961C] [ACDFB1DC]           
 11   78.0 [CC78FC6D] [784D6C0D]           
 12   94.2 [43D38E72] [77D35B7A]           
 13   94.7 [4382F033] [5595314E]           
 14   94.7 [C8596594] [567A37EE]           
 15   95.1 [C197CC8D] [45547E13]           
 16   94.4 [57A18EEB] [BFB1A531]           
 17   83.4 [8BC705AC] [7E04EF53]           



Create a new paste based on this one


Comments: