[ create a new paste ] login | about

Link: http://codepad.org/ek7tsIpJ    [ raw code | fork ]

Plain Text, pasted on Jun 7:
Exact Audio Copy V1.0 beta 3 from 29. August 2011

EAC extraction logfile from 1. February 2014, 21:33

John Mellencamp / Mr. Happy Go Lucky

Used drive  : PLEXTOR BD-R  PX-B950SA   Adapter: 6  ID: 0

Read mode               : Secure
Utilize accurate stream : Yes
Defeat audio cache      : Yes
Make use of C2 pointers : No

Read offset correction                      : 6
Overread into Lead-In and Lead-Out          : No
Fill up missing offset samples with silence : Yes
Delete leading and trailing silent blocks   : No
Null samples used in CRC calculations       : Yes
Used interface                              : Native Win32 interface for Win NT & 2000

Used output format : Internal WAV Routines
Sample format      : 44.100 Hz; 16 Bit; Stereo


TOC of the extracted CD

     Track |   Start  |  Length  | Start sector | End sector 
    ---------------------------------------------------------
        1  |  0:00.00 |  1:56.15 |         0    |     8714   
        2  |  1:56.15 |  4:24.15 |      8715    |    28529   
        3  |  6:20.30 |  4:54.22 |     28530    |    50601   
        4  | 11:14.52 |  3:47.63 |     50602    |    67689   
        5  | 15:02.40 |  5:29.57 |     67690    |    92421   
        6  | 20:32.22 |  3:20.33 |     92422    |   107454   
        7  | 23:52.55 |  5:34.57 |    107455    |   132561   
        8  | 29:27.37 |  3:11.38 |    132562    |   146924   
        9  | 32:39.00 |  6:15.00 |    146925    |   175049   
       10  | 38:54.00 |  3:55.00 |    175050    |   192674   
       11  | 42:49.00 |  1:37.47 |    192675    |   199996   
       12  | 44:26.47 |  3:17.48 |    199997    |   214819   
       13  | 47:44.20 |  5:25.19 |    214820    |   239213   


Range status and errors

Selected range

     Filename C:\John Mellencamp\2013 John Mellencamp 1978-2012 (19CD Box Set Mercury Records)\1996 Mr. Happy Go Lucky\John Mellencamp - Mr. Happy Go Lucky.wav

     Peak level 98.8 %
     Extraction speed 7.8 X
     Range quality 99.9 %
     Test CRC CC11D003
     Copy CRC CC11D003
     Copy OK

No errors occurred

 
AccurateRip summary
 
Track  1  accurately ripped (confidence 6)  [41EB72FC]  (AR v2)
Track  2  accurately ripped (confidence 6)  [DD7034D4]  (AR v2)
Track  3  accurately ripped (confidence 6)  [902137DE]  (AR v2)
Track  4  accurately ripped (confidence 6)  [081C05B0]  (AR v2)
Track  5  accurately ripped (confidence 6)  [A3F30263]  (AR v2)
Track  6  accurately ripped (confidence 6)  [C8D3DEB6]  (AR v2)
Track  7  accurately ripped (confidence 6)  [BD149505]  (AR v2)
Track  8  accurately ripped (confidence 6)  [EC7040E1]  (AR v2)
Track  9  accurately ripped (confidence 6)  [841C1D43]  (AR v2)
Track 10  accurately ripped (confidence 6)  [853483F1]  (AR v2)
Track 11  accurately ripped (confidence 6)  [063960C5]  (AR v2)
Track 12  accurately ripped (confidence 6)  [092FAC83]  (AR v2)
Track 13  accurately ripped (confidence 6)  [1B9E8D9F]  (AR v2)
 
All tracks accurately ripped

End of status report

==== Log checksum 6F6E2E5E542D182F01D4FD6D0243808D99F274E22DD73A5EC8A03438E89CA49C ====



Create a new paste based on this one


Comments: